<?xml version="1.0" standalone="no"?>
<!DOCTYPE svg PUBLIC "-//W3C//DTD SVG 1.1//EN" "http://www.w3.org/Graphics/SVG/1.1/DTD/svg11.dtd">
<svg xmlns="http://www.w3.org/2000/svg">
<metadata>Generated by Fontastic.me</metadata>
<defs>
<font id="science" horiz-adv-x="512">
<font-face font-family="science" units-per-em="512" ascent="480" descent="-32"/>
<missing-glyph horiz-adv-x="512" />

<glyph unicode="&#97;" d="M451 0l-390 0c-29 0-50 9-58 26-4 9-8 28 14 54l146 173 0 163c-22 5-39 24-39 45l0 3c0 27 24 48 53 48l158 0c29 0 53-21 53-48l0-2c0-22-17-41-39-46l0-163 146-173c22-26 18-45 14-54-8-17-29-26-58-26z m-274 491c-17 0-31-12-31-27l0-3c0-13 12-24 29-25l10-1 0-190-152-179c-10-12-14-23-10-31 4-8 18-14 38-14l390 0c20 0 34 6 38 14 4 8 0 19-10 31l-152 179 0 190 10 1c17 1 29 12 29 26l0 2c0 15-14 27-31 27z m-58-438c-3 0-5 1-7 2-5 4-5 10-2 15l105 132c4 5 11 5 15 2 5-4 6-11 2-15l-105-132c-2-3-5-4-8-4z m213 235l-152 0c-5 0-10 5-10 10 0 6 5 11 10 11l152 0c5 0 10-5 10-11 0-5-5-10-10-10z"/>
<glyph unicode="&#98;" d="M324 127l-136 0c-3 0-6 2-8 4-2 2-3 6-2 9 5 32 7 72 1 82-9 14-20 27-31 40-24 26-48 53-48 94 0 86 70 156 156 156 86 0 156-70 156-156 0-41-24-68-48-94-11-13-23-26-31-40-6-10-4-50 1-82 1-3 0-7-2-9-2-2-5-4-8-4z m-123 22l110 0c-3 23-7 67 4 84 9 16 22 30 33 43 22 24 43 47 43 80 0 74-61 135-135 135-74 0-135-61-135-135 0-33 21-56 43-80 11-13 24-27 33-43 11-17 7-61 4-84z m127-70l-143 0c-6 0-11 5-11 11 0 6 5 10 11 10l143 0c6 0 10-4 10-10 0-6-4-11-10-11z m0-39l-143 0c-6 0-11 4-11 10 0 6 5 11 11 11l143 0c6 0 10-5 10-11 0-6-4-10-10-10z m-40-40l-64 0c-6 0-10 5-10 11 0 6 4 10 10 10l64 0c6 0 11-4 11-10 0-6-5-11-11-11z m-47 309c0 0 0 0 0 0-3 0-6 1-8 3l-62 65c-4 4-4 11 1 15 4 4 11 4 15 0l54-57 84 84c5 4 11 4 15 0 5-4 5-11 0-15l-92-92c-2-2-4-3-7-3z"/>
<glyph unicode="&#99;" d="M256 145c-144 0-256 49-256 111 0 62 112 111 256 111 144 0 256-49 256-111 0-62-112-111-256-111z m0 201c-140 0-235-47-235-90 0-43 95-90 235-90 140 0 235 47 235 90 0 43-95 90-235 90z m84-346c-55 0-128 87-179 211-51 124-68 268-9 297 7 3 13 4 20 4 55 0 128-87 179-211 59-144 63-271 9-297-6-2-13-4-20-4z m-168 491c-4 0-7-1-11-3-36-17-37-132 20-269 50-124 120-198 159-198 4 0 7 1 11 3 36 17 37 131-20 269-50 124-120 198-159 198z m-53-448c-17 0-31 5-41 15-41 43 4 164 103 275 74 83 157 136 212 136 17 0 31-5 41-15 41-43-4-164-103-275-74-83-157-136-212-136z m274 405c-48 0-127-52-196-129-97-108-132-216-104-246 6-6 15-9 26-9 48 0 127 52 196 129 97 108 132 216 104 246-6 6-15 9-26 9z m-99-192c0 22-17 41-38 41-21 0-38-19-38-41 0-22 17-41 38-41 21 0 38 19 38 41z"/>
<glyph unicode="&#100;" d="M324 127l-136 0c-3 0-6 2-8 4-2 2-3 6-2 9 5 32 7 72 1 82-9 14-20 27-31 40-24 26-48 53-48 94 0 86 70 156 156 156 86 0 156-70 156-156 0-41-24-68-48-94-11-13-23-26-31-40-6-10-4-50 1-82 1-3 0-7-2-9-2-2-5-4-8-4z m-123 22l110 0c-3 23-7 67 4 84 9 16 22 30 33 43 22 24 43 47 43 80 0 74-61 135-135 135-74 0-135-61-135-135 0-33 21-56 43-80 11-13 24-27 33-43 11-17 7-61 4-84z m127-70l-143 0c-6 0-11 5-11 11 0 6 5 10 11 10l143 0c6 0 10-4 10-10 0-6-4-11-10-11z m0-39l-143 0c-6 0-11 4-11 10 0 6 5 11 11 11l143 0c6 0 10-5 10-11 0-6-4-10-10-10z m-40-40l-64 0c-6 0-10 5-10 11 0 6 4 10 10 10l64 0c6 0 11-4 11-10 0-6-5-11-11-11z m7 316c-3 0-6 2-8 4l-77 77c-4 4-4 11 0 15 4 4 11 4 15 0l77-77c4-4 4-11 0-15-2-2-5-4-7-4z m-78 0c-2 0-5 2-7 4-4 4-4 11 0 15l77 77c4 4 11 4 15 0 4-4 4-11 0-15l-77-77c-2-2-5-4-8-4z"/>
<glyph unicode="&#101;" d="M324 127l-136 0c-3 0-6 2-8 4-2 2-3 6-2 9 5 32 7 72 1 82-9 14-20 27-31 40-24 26-48 53-48 94 0 86 70 156 156 156 86 0 156-70 156-156 0-41-24-68-48-94-11-13-23-26-31-40-6-10-4-50 1-82 1-3 0-7-2-9-2-2-5-4-8-4z m-123 22l110 0c-3 23-7 67 4 84 9 16 22 30 33 43 22 24 43 47 43 80 0 74-61 135-135 135-74 0-135-61-135-135 0-33 21-56 43-80 11-13 24-27 33-43 11-17 7-61 4-84z m127-70l-143 0c-6 0-11 5-11 11 0 6 5 10 11 10l143 0c6 0 10-4 10-10 0-6-4-11-10-11z m0-39l-143 0c-6 0-11 4-11 10 0 6 5 11 11 11l143 0c6 0 10-5 10-11 0-6-4-10-10-10z m-40-40l-64 0c-6 0-10 5-10 11 0 6 4 10 10 10l64 0c6 0 11-4 11-10 0-6-5-11-11-11z m22 355l-108 0c-6 0-11 5-11 11 0 6 5 10 11 10l108 0c6 0 11-4 11-10 0-6-5-11-11-11z"/>
<glyph unicode="&#102;" d="M303 284c-53 0-96 43-96 96 0 53 43 96 96 96 52 0 95-43 95-96 0-53-43-96-95-96z m0 170c-41 0-75-33-75-74 0-41 34-74 75-74 41 0 74 33 74 74 0 41-33 74-74 74z m-226-197c-43 0-77 35-77 77 0 43 34 77 77 77 42 0 77-34 77-77 0-42-35-77-77-77z m0 133c-31 0-56-25-56-56 0-30 25-55 56-55 31 0 55 25 55 55 0 31-24 56-55 56z m159-354c-31 0-57 26-57 57 0 31 26 57 57 57 31 0 57-26 57-57 0-31-26-57-57-57z m0 93c-20 0-36-16-36-36 0-19 16-35 36-35 19 0 35 16 35 35 0 20-16 36-35 36z m219 54c-31 0-57 25-57 57 0 31 26 56 57 56 31 0 57-25 57-56 0-32-26-57-57-57z m0 92c-19 0-35-16-35-35 0-20 16-36 35-36 20 0 36 16 36 36 0 19-16 35-36 35z m-371 50c-5 0-9 4-10 9-2 6 2 11 8 12l133 28c6 1 12-3 13-9 1-6-3-11-8-12l-134-28c-1 0-1 0-2 0z m160-231c-1 0-2 0-2 0-6 1-10 7-9 12l39 194c1 5 6 9 12 8 6-1 10-7 9-13l-39-193c-1-5-5-8-10-8z m201 143c-3 0-5 0-7 2l-81 74c-5 4-5 11-1 15 4 4 11 5 15 1l81-74c5-4 5-11 1-15-2-2-5-3-8-3z"/>
<glyph unicode="&#103;" d="M113 0c-3 0-6 2-9 4-1 3-40 58-19 124 18 58 75 104 169 138 91 33 143 74 155 124 14 56-29 104-29 104-4 4-4 11 0 15 5 4 12 4 15 0 3-3 51-57 35-124-14-57-71-104-169-139-87-32-140-73-156-124-17-56 16-105 17-105 3-5 2-12-3-15-2-1-4-2-6-2z m286 0c-2 0-4 1-6 2-5 3-6 10-3 15 1 0 34 49 17 105-16 51-69 92-156 124-98 35-155 82-169 139-16 67 32 121 35 124 3 4 10 4 15 0 4-4 4-10 0-15 0 0-43-48-29-104 12-50 65-91 155-124 94-34 151-80 169-138 21-66-18-121-19-124-3-2-6-4-9-4z m-45 463l-196 0c-6 0-11 4-11 10 0 6 5 11 11 11l196 0c6 0 11-5 11-11 0-6-5-10-11-10z m29-69l-254 0c-6 0-11 5-11 10 0 6 5 11 11 11l254 0c6 0 11-5 11-11 0-5-5-10-11-10z m-66-69l-122 0c-6 0-11 5-11 11 0 5 5 10 11 10l122 0c6 0 11-5 11-10 0-6-5-11-11-11z m37-297l-196 0c-6 0-11 5-11 11 0 6 5 10 11 10l196 0c6 0 11-4 11-10 0-6-5-11-11-11z m29 69l-254 0c-6 0-11 5-11 11 0 5 5 10 11 10l254 0c6 0 11-5 11-10 0-6-5-11-11-11z m-66 69l-122 0c-6 0-11 5-11 10 0 6 5 11 11 11l122 0c6 0 11-5 11-11 0-5-5-10-11-10z"/>
<glyph unicode="&#104;" d="M324 127l-136 0c-3 0-6 2-8 4-2 2-3 6-2 9 5 32 7 72 1 82-9 14-20 27-31 40-24 26-48 53-48 94 0 86 70 156 156 156 86 0 156-70 156-156 0-41-24-68-48-94-11-13-23-26-31-40-6-10-4-50 1-82 1-3 0-7-2-9-2-2-5-4-8-4z m-123 22l110 0c-3 23-7 67 4 84 9 16 22 30 33 43 22 24 43 47 43 80 0 74-61 135-135 135-74 0-135-61-135-135 0-33 21-56 43-80 11-13 24-27 33-43 11-17 7-61 4-84z m127-70l-143 0c-6 0-11 5-11 11 0 6 5 10 11 10l143 0c6 0 10-4 10-10 0-6-4-11-10-11z m0-39l-143 0c-6 0-11 4-11 10 0 6 5 11 11 11l143 0c6 0 10-5 10-11 0-6-4-10-10-10z m-40-40l-64 0c-6 0-10 5-10 11 0 6 4 10 10 10l64 0c6 0 11-4 11-10 0-6-5-11-11-11z m22 355l-108 0c-6 0-11 5-11 11 0 6 5 10 11 10l108 0c6 0 11-4 11-10 0-6-5-11-11-11z m-54-54c-6 0-11 4-11 10l0 109c0 6 5 11 11 11 6 0 11-5 11-11l0-109c0-6-5-10-11-10z"/>
<glyph unicode="&#105;" d="M46 0c-14 0-26 4-34 12-33 34 10 114 39 159 4 5 10 6 15 3 5-3 6-10 3-15-50-78-54-120-42-132 11-10 43-9 103 25 57 31 122 83 184 146 135 134 198 259 171 287-12 12-54 8-132-42-5-3-12-2-15 3-3 5-2 12 3 15 45 29 125 72 159 39 48-48-52-199-171-317-63-64-130-117-188-150-39-22-71-33-95-33z m199 50c-120 0-218 97-218 217 0 120 98 218 218 218 120 0 218-98 218-218 0-120-98-217-218-217z m0 414c-109 0-197-88-197-197 0-108 88-196 197-196 108 0 196 88 196 196 0 109-88 197-196 197z"/>
<glyph unicode="&#106;" d="M256 0c-82 0-149 67-149 149 0 50 26 97 69 124l0 68c0 6 4 11 10 11l140 0c6 0 11-5 11-11l0-68c42-27 68-74 68-124 0-82-67-149-149-149z m-59 331l0-64c0-3-2-7-5-9-39-23-63-65-63-109 0-71 57-128 127-128 70 0 127 57 127 128 0 44-24 86-63 109-3 2-5 6-5 9l0 64z m84 31c-3 0-6 1-8 4-4 4-3 11 1 15 16 12 24 26 24 41-1 28-28 54-41 65-29-28-43-54-41-74 3-21 23-31 23-31 6-3 8-9 5-14-2-6-9-8-14-5-1 0-30 15-35 47-4 29 14 63 54 99 4 4 9 4 14 1 2-2 55-40 56-87 0-22-10-42-31-59-2-2-5-2-7-2z m30-294c-1 0-1 0-2 0-50 12-63 54-62 74l0 274c0 6 4 11 10 11 6 0 11-5 11-11l0-274c0-2 0-43 46-53 5-2 9-8 8-13-2-5-6-8-11-8z"/>
<glyph unicode="&#107;" d="M22 0c-2 0-4 1-6 2-4 2-6 7-4 12l133 388c1 3 5 6 8 7 4 0 8-1 11-4l90-114 229 218c3 4 9 4 13 1 4-3 6-8 4-13l-190-458c-1-4-5-6-8-7-4-1-8 1-10 4l-103 121-160-154c-2-2-4-3-7-3z m137 376l-113-327 136 131c2 2 5 3 8 3 3 0 6-2 8-4l99-116 164 396-201-191c-2-2-5-3-8-3-3 0-6 2-8 4z"/>
<glyph unicode="&#108;" d="M260 246c-1 0-2 0-3 0l-249 71c-3 0-6 2-7 5-1 3-1 6 0 9l66 174c1 3 3 5 6 6 3 1 6 1 9 0l230-119c5-3 7-9 5-14l-47-126c-2-4-6-6-10-6z m-235 88l228-65 41 108-211 109z m379-113c-1 0-2 0-4 0l-136 45c-3 1-5 3-6 5-2 3-2 6-1 9l33 86c1 3 3 5 6 6 3 1 6 1 8 0l131-61c5-2 7-8 5-14l-26-69c-2-5-6-7-10-7z m-123 62l116-38 20 51-111 52z m210-72c-1 0-2 0-3 0l-82 23c-3 1-5 3-7 6-1 2-1 5 0 8l16 44c1 3 4 5 7 6 2 1 6 1 8 0l76-40c5-2 7-8 5-13l-10-28c-2-4-6-6-10-6z m-68 41l61-18 4 10-57 29z m-157-91c-30 0-53 18-53 41 0 22 23 40 53 40 29 0 52-18 52-40 0-23-23-41-52-41z m0 60c-17 0-32-9-32-19 0-11 15-20 32-20 16 0 31 9 31 20 0 10-15 19-31 19z m-82-221c-1 0-2 0-3 0-6 2-9 8-7 14l37 130c1 5 5 8 10 8l45 0c5 0 10-5 10-11l0-130c0-6-5-11-10-11-6 0-11 5-11 11l0 120-26 0-35-123c-1-5-5-8-10-8z m163 0c-5 0-9 3-10 8l-35 123-26 0 0-120c0-6-5-11-10-11-6 0-11 5-11 11l0 130c0 6 5 11 11 11l44 0c5 0 9-3 10-8l37-130c2-6-1-12-7-14-1 0-2 0-3 0z"/>
<glyph unicode="&#109;" d="M254 0c-6 0-11 4-11 10l-28 286-18-140c0-5-5-9-10-9-5 0-10 4-11 9l-25 134-14-35c-1-5-5-7-10-7l-79 0c-6 0-11 5-11 10 0 6 5 11 11 11l72 0 25 63c1 5 6 7 10 7 5 0 9-4 10-9l20-105 21 168c1 5 6 9 11 9 6 0 10-4 11-10l19-206 9 316c0 5 4 10 10 10 5 0 10-4 11-9 11-78 27-184 37-244 7 30 16 70 23 99 1 4 5 8 10 8 5 0 10-3 11-8l23-87 72 0c6 0 11-4 11-10 0-6-5-11-11-11l-80 0c-5 0-9 3-10 8l-15 53c-24-103-26-106-27-108-3-3-7-5-11-4-8 2-10 2-36 179l-10-368c0-5-4-10-10-10 0 0 0 0 0 0z m-204 209c-28 0-50 23-50 51 0 28 22 51 50 51 27 0 50-23 50-51 0-28-23-51-50-51z m0 81c-16 0-29-14-29-30 0-16 13-29 29-29 15 0 28 13 28 29 0 16-13 30-28 30z m412-81c-27 0-49 23-49 51 0 28 22 51 49 51 28 0 50-23 50-51 0-28-22-51-50-51z m0 81c-15 0-28-14-28-30 0-16 13-29 28-29 16 0 29 13 29 29 0 16-13 30-29 30z"/>
<glyph unicode="&#110;" d="M274 0c-1 0-2 0-3 1-6 2-9 8-7 13 4 12 6 20 8 27 2 10 4 17 11 26 4 4 9 7 12 10 11 8 22 12 33 15 12 3 25 3 37 2 12-1 24-2 33 3 2 1 3 1 3 1 0 1-3 6-5 9-4 7-9 16-7 27 2 9 10 14 15 18 1 0 1 0 1 0-1 2-4 4-5 5-1 1-2 2-3 2-3 3-4 9-2 13 4 7 11 11 18 14-5 8-6 18 0 27 7 11 19 13 29 15 4 0 8 1 10 2 0 0 0 0 0 0l-3 4c-5 6-9 11-14 16-2 3-6 5-9 8-11 10-23 22-26 37-2 10 2 19 4 26l2 4c2 6 3 13 3 21-1 13-3 30-5 35-29 70-92 110-172 110-97 0-175-79-175-175 0-26 6-53 18-77 6-12 13-23 21-33l2-2c9-11 17-20 17-39 1-5 1-12 0-18 0-12-5-26-15-40-6-9-11-19-17-29-8-14-15-28-25-40-3-5-10-6-15-3-4 4-5 11-2 15 9 12 16 25 23 38 6 10 12 21 19 31 7 11 11 21 11 29 0 6 0 11 0 16 0 12-4 16-12 26l-2 3c-10 11-18 23-24 36-13 27-21 57-21 87 0 108 89 196 197 196 89 0 159-45 192-123 4-11 6-37 6-42 1-11-1-20-4-30l-2-3c-2-6-4-11-3-15 1-8 11-17 20-25 3-3 7-6 10-10 5-5 9-10 14-16l3-4c5-5 10-11 8-19-1-8-9-11-14-14-5-2-11-3-16-4-7-1-13-2-15-6-3-4 3-10 7-12 3-2 4-6 4-10 0-4-3-7-6-9-3-1-6-2-9-2-2-1-3-1-5-2 4-4 7-9 7-15-1-9-8-14-13-17-2-1-5-4-6-5 0-2 3-8 5-12 4-8 9-16 6-26-2-6-7-10-14-14-14-6-29-5-44-4-10 0-20 1-29-2-9-2-18-5-25-10-4-3-8-6-9-8-4-4-5-7-7-17-2-7-4-16-9-29-1-4-5-7-10-7z m-171 226c-5 0-8 0-12 0-12 1-33 7-39 21-3 6-1 12 5 15 5 2 11 0 14-5 2-4 13-9 22-10 7 0 18-1 23 3 1 0 2 2 4 4 3 4 7 9 14 10 5 2 10 1 15 0 2-1 4-1 5-1 9 0 13 2 17 8 1 1 2 3 3 5 2 5 5 12 15 16 5 1 9 1 13 1 3-1 3-1 4 0 0 0 2 3 2 4 3 5 6 10 12 14 7 5 13 5 18 5 2 0 3 0 5 0 7 1 16 4 21 10 0 1 1 3 2 4 2 5 5 12 13 16 6 3 14 2 21 1 3 0 6 0 7 0 8 0 12 3 15 10 1 1 2 3 2 5 2 5 4 13 12 18 8 5 18 4 26 4 3-1 7-1 9-1 7 1 17 9 16 15 0 6 4 11 10 12 6 0 11-4 11-10 2-20-19-36-34-38-5-1-10 0-14 0-4 1-11 1-13 0-1-1-2-4-2-6-1-3-2-6-4-9-6-13-16-20-32-22-3 0-7 1-11 1-3 0-9 1-11 0 0 0-1-2-1-4-1-2-3-6-5-9-11-14-29-17-36-18-3 0-5 0-7 0-4 0-5 0-7-2-1 0-2-3-4-6-2-3-4-8-8-11-7-6-14-5-19-5-2 0-4 1-5 0-1 0-1-2-2-3-1-3-2-6-4-9-10-15-23-17-34-18-4 0-7 1-11 2-2 0-4 1-5 1 0 0-2-3-3-4-2-3-5-6-9-8-7-5-16-6-24-6z m179 196c0 0 0 0 0 0-6 0-11 5-10 11 0 8-5 13-8 15-6 5-15 6-22 4-5-2-11 1-13 6-2 6 0 12 6 14 14 5 30 2 42-7 11-8 17-20 16-33 0-6-5-10-11-10z m-165-114c-7 0-15 1-21 6-9 6-16 23-17 31-1 6 4 11 10 12 5 0 11-4 11-10 1-4 5-14 8-16 3-2 12-1 18-1 3 0 6 1 8 1 6 0 11-5 11-11 0-6-5-11-11-11-2 0-4 0-7 0-3 0-6-1-10-1z m89 37c-4 0-7 0-10 1-10 2-15 8-18 12-2 2-3 4-5 5-2 1-10 0-14 0l-2 0c-4 0-4 0-8-4-1-2-3-4-5-6-4-4-11-4-15 0-4 4-4 11 0 15 2 2 3 3 4 5 6 6 10 10 23 11l1 0c8 1 18 2 26-2 6-3 9-7 12-11 2-3 3-4 5-4 5-1 11-1 12 0 4 5 11 6 15 2 5-4 5-11 2-15-6-7-15-9-23-9z m88 30c-4 0-8 3-9 7-3 5 0 11 5 14 21 8 24 20 24 44 0 5 5 10 11 10 6 0 11-5 11-10 0-30-7-51-37-64-2-1-3-1-5-1z m-100 22c-4 0-7 2-9 6-3 5-1 11 4 14 1 1 2 3 1 8 0 9-5 18-8 19-5 2-8 8-6 14 3 5 9 8 14 6 13-5 21-23 22-37 1-13-4-23-13-28-1-1-3-2-5-2z"/>
<glyph unicode="&#111;" d="M470 143l-428 0c-23 0-42 19-42 43l0 283c0 24 19 43 42 43l428 0c23 0 42-19 42-43l0-283c0-24-19-43-42-43z m-428 348c-12 0-21-10-21-22l0-283c0-12 9-22 21-22l428 0c12 0 21 10 21 22l0 283c0 12-9 22-21 22z m387-491l-346 0c-6 0-11 5-11 11l0 50c0 5 5 10 11 10l89 0 0 82c0 6 5 11 11 11l146 0c6 0 11-5 11-11l0-82 89 0c6 0 11-5 11-10l0-50c0-6-5-11-11-11z m-335 21l324 0 0 29-89 0c-5 0-10 5-10 11l0 82-126 0 0-82c0-6-5-11-10-11l-89 0z"/>
<glyph unicode="&#112;" d="M332 7c-29 0-56 12-76 32-20-20-47-32-76-32-39 0-75 22-93 56-1 0-1 0-2 0-47 0-85 38-85 85 0 22 8 42 23 58-12 14-18 31-18 49 0 30 18 57 45 69 0 4-1 8-1 12 0 35 25 65 59 73 1 36 31 65 68 63 9 20 29 33 51 33 10 0 20-3 29-8 9 5 19 8 29 8 22 0 42-13 52-33 36 2 66-27 67-63 34-8 59-38 59-73 0-4-1-8-1-12 27-12 45-39 45-69 0-18-6-35-18-49 15-16 23-36 23-58 0-47-38-85-85-85-1 0-1 0-2 0-18-34-54-56-93-56z m-76 59c3 0 6-1 8-4 17-21 41-33 68-33 33 0 63 19 77 50 2 4 6 7 11 6 2 0 5 0 7 0 35 0 64 28 64 63 0 19-9 37-24 49-2 2-3 5-3 9 0 3 1 6 3 8 12 10 19 25 19 41 0 24-16 45-40 52-2 1-5 2-6 5-1 2-2 5-1 8 2 5 2 10 2 16 0 28-21 51-49 54-2 0-5 1-7 4-2 2-3 5-2 8 0 1 0 3 0 5 0 24-19 44-44 44-2 0-5 0-8-1-5-1-10 2-12 8-4 15-18 25-34 25-8 0-16-2-22-8-4-3-10-3-14 0-6 6-14 8-22 8-16 0-30-10-34-25-2-6-7-9-12-8-3 1-6 1-8 1-25 0-44-20-44-44 0-2 0-4 0-5 1-3 0-6-2-8-2-3-4-4-7-4-28-3-49-26-49-54 0-6 0-11 2-16 1-3 1-6-1-8-1-3-4-4-6-5-24-7-40-28-40-52 0-16 7-31 19-41 2-2 4-5 3-8 0-4-1-7-3-9-15-12-24-30-24-49 0-35 29-63 64-63 2 0 5 0 7 0 5 1 9-2 11-6 14-31 44-50 77-50 27 0 51 12 68 33 2 3 5 4 8 4z m-54 298c-6 0-12 3-16 7-4 4-4 11 0 15 4 4 11 4 15 0 3-1 11 5 18 20 9 17 10 33 6 37-4 5-4 11 1 15 4 4 11 4 15-1 18-20 1-65-19-83-7-7-14-10-20-10z m-96-128c-2 0-4 0-5 1-8 4-13 11-14 21-1 17 13 37 23 44 14 10 49 12 64 4 5-3 7-9 5-15-3-5-10-7-15-4-8 4-35 2-42-3-6-3-14-17-13-25 0-2 1-3 1-3 6-3 8-9 5-14-2-4-5-6-9-6z m53-175c0 0 0 0 0 0-6 0-11 5-11 11 0 2 1 4 1 7 0 12 0 24-7 30-9 8-29 8-54 0-6-2-12 2-13 7-2 6 1 12 7 14 23 7 55 12 75-5 14-13 13-32 13-47 0-2 0-4 0-6 0-6-5-11-11-11z m25 265c-1 0-1 0-1 0-10 0-19 5-26 13-16 19-13 53-12 63 0 6 6 10 12 10 5-1 10-6 9-12-2-17 0-38 8-48 3-3 6-5 11-5 5-1 10-6 9-12 0-5-5-9-10-9z m-34-217c-5 0-9 3-11 8-1 5 2 11 8 13 27 7 44 22 51 45 1 6 7 9 13 7 5-1 9-7 7-13-8-30-31-51-66-60-1 0-1 0-2 0z m-71 64c-3 0-6 1-8 4-4 4-3 11 2 15 23 18 44 18 69 17l2 0c17-1 19 2 26 14 3 4 5 9 9 14 3 5 10 6 15 3 5-4 6-10 2-15-3-5-5-9-7-12-10-17-18-27-46-26l-1 0c-24 1-39 2-56-12-2-2-4-2-7-2z m231 191c-6 0-13 3-20 10-20 18-37 63-19 83 4 5 11 5 15 1 5-4 5-10 1-15-4-4-3-20 6-38 7-14 15-20 17-20 4 5 11 5 16 1 4-4 4-11 0-15-4-4-10-7-16-7z m96-128c-3 0-7 2-9 6-3 5-1 11 5 14 0 0 1 1 1 3 1 8-7 22-13 25-7 5-34 7-42 3-5-3-12-1-15 4-2 6 0 12 5 15 15 8 50 6 64-4 11-7 24-27 23-44-1-10-6-17-14-21-1-1-3-1-5-1z m-53-175c-6 0-11 5-11 11 0 2 0 4 0 6 0 15-1 34 13 47 20 17 52 12 75 5 6-2 9-8 7-14-1-5-7-9-13-7-25 8-45 8-54 0-7-6-7-18-7-30 0-3 1-5 1-7 0-6-5-11-11-11z m-25 265c-5 0-10 4-10 9-1 6 4 11 9 12 5 0 8 2 11 5 8 10 10 31 8 48-1 6 4 11 9 12 6 0 12-4 12-10 1-10 4-44-12-63-7-8-16-13-26-13 0 0 0 0-1 0z m34-217c-1 0-1 0-2 0-35 9-58 30-66 60-2 6 2 12 7 13 6 2 12-1 13-7 7-23 23-38 51-45 6-2 9-8 8-13-2-5-6-8-11-8z m71 64c-3 0-5 0-7 2-17 14-32 13-56 12l-1 0c-28-1-36 9-46 26-2 3-4 7-7 12-4 5-3 11 2 15 5 3 12 2 15-3 4-5 6-10 9-14 7-12 9-15 26-14l2 0c25 1 46 1 69-17 5-4 6-11 2-15-2-3-5-4-8-4z m-177 63c-6 0-11 4-11 10l0 83c0 6 5 11 11 11 6 0 11-5 11-11l0-83c0-6-5-10-11-10z m-3-148c-6 0-10 5-10 11l0 66c0 6 4 11 10 11 6 0 11-5 11-11l0-66c0-6-5-11-11-11z"/>
<glyph unicode="&#113;" d="M272 277l-81 0c-6 0-11 4-11 10 0 6 5 11 11 11l81 0c6 0 10-5 10-11 0-6-4-10-10-10z m104 0l-38 0c-6 0-11 4-11 10 0 6 5 11 11 11l38 0c6 0 11-5 11-11 0-6-5-10-11-10z m70-204l-165 0c-6 0-11 5-11 11 0 6 5 11 11 11l165 0c25 0 45 20 45 44l0 93c0 25-20 45-45 45-5 0-10 4-10 10 0 6 5 11 10 11 37 0 66-30 66-66l0-93c0-36-29-66-66-66z m-34-29c-6 0-10 5-10 11l0 29c0 6 4 11 10 11 6 0 11-5 11-11l0-29c0-6-5-11-11-11z m6 81l-11 0c-21 0-38 17-38 38l0 208c0 6 4 11 10 11 6 0 11-5 11-11l0-208c0-9 7-16 17-16l11 0c9 0 17 7 17 16l0 208c0 6 5 11 11 11 5 0 10-5 10-11l0-208c0-21-17-38-38-38z m-107 0l-12 0c-21 0-38 17-38 38l0 208c0 6 5 11 11 11 6 0 10-5 10-11l0-208c0-9 8-16 17-16l12 0c9 0 16 7 16 16l0 208c0 6 5 11 11 11 6 0 11-5 11-11l0-208c0-21-17-38-38-38z m-66-125l-199 0c-1 0-2 0-2 0-1 0-28 7-39 31-9 19-6 43 9 70l77 150 0 161-36 0c-6 0-10 5-10 11l0 78c0 6 4 11 10 11l181 0c6 0 11-5 11-11l0-78c0-6-5-11-11-11l-36 0 0-161 77-150c15-27 18-51 9-70-11-24-37-31-39-31 0 0-1 0-2 0z m-198 21l197 0c3 1 17 6 23 19 6 13 3 30-9 51l-78 153c-1 1-1 3-1 4l0 175c0 6 4 11 10 11l36 0 0 57-159 0 0-57 36 0c6 0 10-5 10-11l0-175c0-1 0-3-1-4l-78-152c-12-22-15-39-9-52 6-13 20-18 23-19z m164 174l-131 0c-6 0-11 5-11 11 0 6 5 10 11 10l131 0c6 0 11-4 11-10 0-6-5-11-11-11z"/>
<glyph unicode="&#114;" d="M210 77c-25 0-58 18-86 47-19 19-34 40-41 60-9 23-7 41 4 53 6 6 16 9 26 9 25 0 59-17 87-46 19-19 34-40 41-60 9-23 7-42-4-53-7-6-16-10-27-10z m-97 148c-5 0-9-1-11-3-5-5-5-17 1-31 6-17 19-35 36-52 27-28 56-40 71-40 5 0 9 1 12 3 4 5 4 16-1 30-6 17-19 36-36 53-28 28-56 40-72 40z m163-56c-3 0-6 1-8 3-4 4-4 11 0 15 3 3 3 11 0 20-4 11-13 25-24 36-18 18-37 27-48 27-3 0-6-1-8-3-4-4-11-4-15 0l-1 1c-2 2-3 5-3 8 0 2 1 5 3 7l82 82c1 2 3 3 5 3 5 3 12 5 19 5 18 0 43-13 63-33 14-14 24-30 29-45 6-17 4-32-5-41l-82-82c0 0 0 0 0 0-2-2-5-3-7-3z m-68 120c17-4 35-15 51-31 14-14 24-30 30-44 0-2 1-4 1-5l60 60c3 3 3 11 0 20-4 11-13 25-24 36-24 24-50 31-56 24-2-1-3-2-5-3z m-47-76c-2 0-5 1-7 3-4 4-4 11 0 15l50 51c4 4 11 4 15 0 4-4 4-11 0-15l-50-51c-2-2-5-3-8-3z m63-62c-3 0-6 1-8 3-4 4-4 11 0 15l51 50c4 4 11 4 15 0 4-4 4-11 0-15l-51-50c-2-2-4-3-7-3z m-119-57c-3 0-6 1-8 3-4 4-4 11 0 15l48 48c4 4 11 4 15 0 4-4 4-11 0-15l-48-48c-2-2-5-3-7-3z m21-53c-21 0-42 10-59 26-14 15-24 34-25 53-1 6 4 11 9 12 6 0 12-4 12-10 1-15 8-29 19-40 14-14 33-21 50-19 5 1 11-4 11-9 1-6-3-12-9-12-3 0-5-1-8-1z m-12-41c-29 0-58 12-80 34-23 23-35 53-34 83 0 6 5 11 11 11 6 0 11-5 10-11 0-25 10-49 28-68 22-22 52-32 80-26 6 1 11-3 13-9 1-6-3-11-9-12-6-1-13-2-19-2z m57 295c-3 0-6 1-8 3l-122 122c-2 2-3 5-3 7 0 3 1 6 3 8l74 74c4 4 11 4 15 0l122-122c2-2 3-5 3-8 0-3-1-5-3-7l-74-74c-2-2-4-3-7-3z m-107 132l107-107 59 59-107 107z m363-389c-2 0-5 1-7 3l-122 122c-4 4-4 11 0 15l74 74c4 4 11 4 15 0l122-122c2-2 3-4 3-7 0-3-1-6-3-8l-74-74c-2-2-5-3-8-3z m-107 133l107-107 59 59-107 107z"/>
<glyph unicode="&#115;" d="M256 0c-102 0-185 83-185 185 0 72 42 137 107 167l0 88-28 0c-6 0-11 5-11 11l0 50c0 6 5 11 11 11l212 0c6 0 11-5 11-11l0-50c0-6-5-11-11-11l-28 0 0-88c65-30 107-95 107-167 0-102-83-185-185-185z m-96 462l28 0c6 0 11-5 11-11l0-106c0-4-2-8-6-10-61-25-100-84-100-150 0-90 73-164 163-164 90 0 163 74 163 164 0 66-39 125-100 150-4 2-6 6-6 10l0 106c0 6 5 11 11 11l28 0 0 29-192 0z m265-250l-338 0c-6 0-10 5-10 11 0 6 4 11 10 11l338 0c6 0 10-5 10-11 0-6-4-11-10-11z m-170 164c0-7-6-13-13-13-7 0-13 6-13 13 0 8 6 13 13 13 7 0 13-5 13-13z m55-103c0-11-9-20-20-20-12 0-21 9-21 20 0 11 9 20 21 20 11 0 20-9 20-20z"/>
<glyph unicode="&#116;" d="M256 110c-1 0-3 0-4 1l-57 21c-4 2-7 6-7 10l0 190c0 1 0 3 0 4l58 169c1 4 5 7 10 7 5 0 9-3 10-7l58-169c0-1 0-3 0-4l0-190c0-4-3-8-7-10l-57-21c-1-1-3-1-4-1z m-47 39l47-17 47 17 0 182-47 137-47-137z m151-97c-1 0-2 1-3 1-4 1-8 5-8 10l-3 116-35 10c-6 2-9 8-8 14 2 5 8 9 14 7l42-13c5-1 8-5 8-10l2-86 14 23 13 150-86 33c-6 2-8 9-6 14 2 6 8 8 13 6l94-36c5-2 8-6 7-11l-14-160c-1-2-1-3-2-5l-33-57c-2-4-5-6-9-6z m-208 0c-4 0-7 2-9 6l-33 57c-1 2-1 3-2 5l-14 160c-1 5 2 9 7 11l94 36c5 2 11 0 13-6 2-5 0-12-6-14l-86-33 13-150 14-23 2 86c0 5 3 9 8 10l42 13c6 2 12-2 14-7 1-6-2-12-8-14l-35-10-3-116c0-5-4-9-8-10-1 0-2-1-3-1z m50-15c-5 0-10 4-10 10l0 68c0 6 5 10 10 10 6 0 11-4 11-10l0-68c0-6-5-10-11-10z m108 0c-6 0-11 4-11 10l0 68c0 6 5 10 11 10 5 0 10-4 10-10l0-68c0-6-5-10-10-10z m-54-37c-6 0-11 5-11 11l0 86c0 6 5 10 11 10 6 0 11-4 11-10l0-86c0-6-5-11-11-11z m0 221c-22 0-40 18-40 40 0 22 18 40 40 40 22 0 40-18 40-40 0-22-18-40-40-40z m0 58c-10 0-19-8-19-18 0-11 9-19 19-19 10 0 19 8 19 19 0 10-9 18-19 18z"/>
<glyph unicode="&#117;" d="M479 0c-2 0-3 0-4 1l-101 40c-2 1-3 2-4 3l-237 237c-4 4-4 11 0 15l83 83c4 4 11 4 15 0l237-237c1-1 2-2 3-4l40-101c2-4 1-8-2-11l-23-23c-2-2-5-3-7-3z m-95 60l92-37 13 13-37 92-228 228-68-68z m-285 189c-11 0-21 4-29 12-16 16-16 43 1 60l8 8-52 52c-16 16-25 36-27 57-1 21 6 40 20 54 12 13 30 20 49 20 22 0 45-10 62-27l52-52 8 8c8 8 19 13 31 13 11 0 21-4 29-12 16-16 16-43-1-60l-120-120c-8-8-19-13-31-13z m-30 242c-14 0-26-5-34-14-10-9-15-23-13-38 1-16 8-31 20-43l60-60c2-2 3-4 3-7 0-3-1-6-3-8l-16-15c-8-9-9-22-1-30 4-4 9-5 14-5 6 0 12 2 16 6l120 120c8 9 9 22 1 30-8 8-22 7-30-1l-15-16c-4-4-11-4-15 0l-60 60c-13 13-31 21-47 21z"/>
<glyph unicode="&#118;" d="M501 59l-285 0c-6 0-10 5-10 11 0 6 4 11 10 11l285 0c6 0 11-5 11-11 0-6-5-11-11-11z m-280-59c-48 0-61 45-61 68 0 22 8 38 18 49l80 122c1 3 5 5 8 5l172 0c4 0 8-2 10-5l62-105c2-3 2-7 1-11-2-3-6-5-10-5l-279 0c-4-1-17-3-27-14-1-1-1-1-2-2-6-7-11-18-11-34 0-5 1-47 39-47l280 0 0-21z m51 222l-55-83c1 0 2 0 3 0 0 0 1 0 1 0l261 0-50 83z m-145-147c-1 0-2 0-4 1l-116 46c-3 2-5 4-6 6-1 3-1 6 0 8l150 369c2 6 8 8 14 6l117-47c2-1 4-3 5-5 2-3 2-6 0-8l-150-369c-2-5-5-7-10-7z m-102 63l96-39 143 350-97 38z m203 185c-1 0-2 0-4 0l-116 47c-3 1-5 3-6 6-1 3-1 6 0 8l22 55c2 6 9 8 14 6l117-47c2-1 4-3 6-5 1-3 1-6 0-9l-23-55c-2-4-6-6-10-6z m-102 63l96-39 15 36-97 38z m-22-234c-5 0-11 1-16 3-11 5-19 13-24 24-5 10-5 22 0 33 6 16 22 27 40 27 6 0 11-1 16-3 11-5 20-13 24-24 5-10 5-22 1-33-7-16-23-27-41-27z m0 65c-9 0-17-5-21-13-2-6-2-12 1-17 2-6 6-10 12-12 11-5 24 1 29 12 2 6 2 11 0 17-3 5-7 10-12 12-3 1-6 1-9 1z"/>
<glyph unicode="&#119;" d="M501 0l-490 0c-6 0-11 5-11 11l0 490c0 6 5 11 11 11 6 0 10-5 10-11l0-480 480 0c6 0 11-4 11-10 0-6-5-11-11-11z m-156 53c-72 0-132 20-179 62-112 99-112 278-111 286 0 6 4 10 10 10 0 0 0 0 0 0 6 0 11-5 11-11 0-1-1-177 104-269 54-48 128-66 219-53 5 1 11-4 12-9 0-6-4-12-10-12-19-3-38-4-56-4z m-285 0c-6 0-10 4-11 9-1 6 4 11 9 12 327 33 323 309 323 321 0 5 4 10 10 11 6 0 11-5 11-11 0-3 5-308-341-342-1 0-1 0-1 0z"/>
<glyph unicode="&#120;" d="M194 0c-50 0-97 19-133 54l-6 6c-35 35-55 82-55 131 0 50 20 96 55 131l97 96c12 11 27 17 43 17 17 0 32-6 44-17 11-12 18-27 18-43 0-17-7-32-18-43l-97-95c-12-13-19-29-19-46 0-17 7-33 19-45l6-6c12-12 29-19 46-19 18 0 34 7 47 19l97 95c11 12 27 18 43 18 16 0 32-6 43-18 12-11 18-27 18-43 0-16-6-31-18-43l-97-95c-35-35-82-54-133-54z m1 414c-10 0-20-4-28-12l-97-95c-31-31-49-72-49-116 0-44 18-85 49-116l6-6c32-31 74-48 118-48 45 0 87 17 118 48l97 96c8 7 12 17 12 27 0 11-4 21-12 28-15 15-41 15-56 0l-97-95c-17-16-38-25-62-25-23 0-45 9-61 25l-6 6c-17 16-26 37-26 60 0 23 9 45 26 61l97 95c7 7 11 17 11 28 0 10-4 20-11 27-8 8-18 12-29 12z m48 21c-5 0-10 4-10 10l-2 45c0 5 3 10 8 11l49 11c5 1 11-3 12-8 2-6-2-12-8-13l-39-9 1-36c0-6-4-11-10-11 0 0 0 0-1 0z m34-33c-6 0-10 4-11 10l-1 45c-1 5 3 10 8 11l48 11c6 1 12-3 13-8 1-6-2-12-8-13l-40-9 2-36c0-6-5-11-11-11 0 0 0 0 0 0z m144-142c-6 0-10 5-11 10l-1 46c0 5 3 9 8 10l48 11c6 1 12-2 13-8 1-6-2-12-8-13l-40-9 2-36c0-6-5-11-10-11-1 0-1 0-1 0z m34-33c-6 0-11 5-11 10l-2 46c0 5 4 9 9 10l48 11c6 1 11-2 13-8 1-6-3-12-8-13l-40-8 1-37c1-6-4-11-10-11 0 0 0 0 0 0z"/>
<glyph unicode="&#121;" d="M324 127l-136 0c-3 0-6 2-8 4-2 2-3 6-2 9 5 32 7 72 1 82-9 14-20 27-31 40-24 26-48 53-48 94 0 86 70 156 156 156 86 0 156-70 156-156 0-41-24-68-48-94-11-13-23-26-31-40-6-10-4-50 1-82 1-3 0-7-2-9-2-2-5-4-8-4z m-123 22l110 0c-3 23-7 67 4 84 9 16 22 30 33 43 22 24 43 47 43 80 0 74-61 135-135 135-74 0-135-61-135-135 0-33 21-56 43-80 11-13 24-27 33-43 11-17 7-61 4-84z m127-70l-143 0c-6 0-11 5-11 11 0 6 5 10 11 10l143 0c6 0 10-4 10-10 0-6-4-11-10-11z m0-39l-143 0c-6 0-11 4-11 10 0 6 5 11 11 11l143 0c6 0 10-5 10-11 0-6-4-10-10-10z m-40-40l-64 0c-6 0-10 5-10 11 0 6 4 10 10 10l64 0c6 0 11-4 11-10 0-6-5-11-11-11z"/>
<glyph unicode="&#122;" d="M395 0l-278 0c-26 0-48 25-48 56l0 400c0 31 22 56 48 56l278 0c26 0 48-25 48-56l0-400c0-31-22-56-48-56z m-278 491c-14 0-27-16-27-35l0-400c0-19 13-35 27-35l278 0c14 0 27 16 27 35l0 400c0 19-13 35-27 35z m266-185l-258 0c-6 0-11 4-11 10l0 134c0 6 5 11 11 11l258 0c6 0 10-5 10-11l0-134c0-6-4-10-10-10z m-248 21l237 0 0 112-237 0z m74-86l-68 0c-6 0-11 5-11 11 0 6 5 10 11 10l68 0c6 0 10-4 10-10 0-6-4-11-10-11z m161 0l-68 0c-5 0-10 5-10 11 0 6 5 10 10 10l68 0c6 0 11-4 11-10 0-6-5-11-11-11z m-161-80l-68 0c-6 0-11 5-11 11 0 6 5 10 11 10l68 0c6 0 10-4 10-10 0-6-4-11-10-11z m161 0l-68 0c-5 0-10 5-10 11 0 6 5 10 10 10l68 0c6 0 11-4 11-10 0-6-5-11-11-11z m-161-80l-68 0c-6 0-11 5-11 11 0 6 5 10 11 10l68 0c6 0 10-4 10-10 0-6-4-11-10-11z m161 0l-68 0c-5 0-10 5-10 11 0 6 5 10 10 10l68 0c6 0 11-4 11-10 0-6-5-11-11-11z"/>
<glyph unicode="&#65;" d="M18 0c-3 0-6 1-8 3-2 2-3 5-3 8l-1 371c0 3 1 5 3 7 2 2 5 4 7 4l372 1c0 0 0 0 0 0 2 0 5-1 7-3 2-2 3-5 3-8l2-371c0-6-5-11-11-11l-371-1c0 0 0 0 0 0z m9 371l1-350 350 2-1 349z m97-253c-6 0-10 5-10 11l-2 371c0 3 2 6 4 8 2 2 4 3 7 3l371 1c0 0 0 0 0 0 3 0 6-1 8-3 2-2 3-5 3-8l1-371c0-3-1-5-3-7-2-2-4-4-7-4l-372-1c0 0 0 0 0 0z m10 371l1-349 350 1-1 350z m-118-118c-2 0-5 1-7 3-4 4-4 11-1 15l107 118c4 5 11 5 15 1 5-4 5-11 1-15l-107-118c-2-3-5-4-8-4z m372 1c-3 0-5 1-8 3-4 4-4 11 0 15l106 118c4 5 11 5 16 1 4-4 4-10 0-15l-106-118c-3-2-5-4-8-4z m1-371c-3 0-5 1-7 3-5 4-5 11-1 15l107 118c4 5 10 5 15 1 4-4 5-11 1-15l-107-118c-2-3-5-4-8-4z m-371-1c-3 0-6 1-8 3-4 4-4 10 0 15l106 118c4 4 11 5 16 1 4-4 4-11 0-15l-106-118c-3-3-6-4-8-4z"/>
<glyph unicode="&#66;" d="M199 0c-74 0-199 11-199 54 0 43 125 55 199 55 73 0 198-12 198-55 0-43-125-54-198-54z m0 87c-111 0-175-22-177-33 2-11 66-33 177-33 111 0 175 22 177 33-2 11-66 33-177 33z m-179-37l-19 8 188 439c2 4 6 7 10 7 4 0 8-3 10-7l188-439-20-8-178 416z m451-6c-6 0-11 4-11 10l0 439c0 6 5 11 11 11 6 0 11-5 11-11l0-439c0-6-5-10-11-10z m1-10c-3 0-6 2-8 4l-32 40c-3 5-2 12 2 15 5 4 12 3 15-2l23-29 21 29c3 5 10 6 15 2 4-3 5-10 2-14l-29-40c-2-3-5-5-9-5 0 0 0 0 0 0z m-31 417c-2 0-5 0-6 2-5 3-6 10-3 15l29 40c2 2 6 4 9 4 3 0 6-1 8-4l32-40c3-5 3-11-2-15-5-4-11-3-15 2l-23 29-21-29c-2-3-5-4-8-4z"/>
<glyph unicode="&#67;" d="M154 69l-127 0c-11 0-20 5-24 13-5 8-4 19 3 29l47 145 0 66c-7 5-13 14-13 24l0 1c0 14 11 26 25 26l51 0c14 0 24-12 24-26l0-1c0-10-5-19-12-24l0-66 47-145c7-10 8-21 3-29-4-8-13-13-24-13z m-89 283c-1 0-3-2-3-5l0-1c0-3 1-5 3-6l9 0 0-89-50-150c-3-5-3-8-2-9 0-1 1-2 5-2l127 0c3 0 5 1 5 2 1 1 1 4-2 9l-2 2-49 151 0 86 10 0c1 1 3 3 3 6l0 1c0 3-2 5-3 5z m420-283l-127 0c-11 0-20 5-24 13-5 8-4 19 3 29l47 145 0 66c-7 5-12 13-12 24l0 1c0 14 10 26 24 26l51 0c14 0 25-12 25-26l0-1c0-10-6-19-13-24l0-66 47-145c7-10 8-21 3-29-4-8-13-13-24-13z m-89 283c-1 0-3-2-3-5l0-1c0-3 2-5 3-6l10 0-1-89-50-150c-3-5-3-8-2-9 0-1 2-2 5-2l127 0c4 0 5 1 5 2 1 1 1 4-2 9l-2 2-48 151 0 86 9 0c2 1 3 3 3 6l0 1c0 3-2 5-3 5z m-140-352c-6 0-11 5-11 11l0 490c0 6 5 11 11 11 6 0 11-5 11-11l0-490c0-6-5-11-11-11z m245 0l-490 0c-6 0-11 5-11 11 0 6 5 10 11 10l490 0c6 0 11-4 11-10 0-6-5-11-11-11z m-106 307l-278 0c-6 0-11 4-11 10 0 6 5 11 11 11l278 0c6 0 11-5 11-11 0-6-5-10-11-10z m-303-168c0-6-5-10-10-10-6 0-10 4-10 10 0 5 4 10 10 10 5 0 10-5 10-10z m4 55c0-3-2-6-6-6-3 0-6 3-6 6 0 4 3 6 6 6 4 0 6-2 6-6z m333-55c0-6-4-10-10-10-5 0-10 4-10 10 0 5 5 10 10 10 6 0 10-5 10-10z m5 55c0-3-3-6-6-6-4 0-6 3-6 6 0 4 2 6 6 6 3 0 6-2 6-6z m13 233c0-3-2-6-6-6-3 0-6 3-6 6 0 3 3 6 6 6 4 0 6-3 6-6z m-25-31c0-5-5-9-10-9-5 0-9 4-9 9 0 5 4 9 9 9 5 0 10-4 10-9z m-305 31c0-3-3-6-6-6-3 0-6 3-6 6 0 3 3 6 6 6 3 0 6-3 6-6z m-16-31c0-5-5-9-10-9-5 0-9 4-9 9 0 5 4 9 9 9 5 0 10-4 10-9z"/>
<glyph unicode="&#68;" d="M501 0l-490 0c-6 0-11 5-11 11l0 490c0 5 3 9 7 10 4 2 8 1 11-2l491-491c3-3 4-7 2-11-1-4-5-7-10-7z m-480 21l455 0-455 455z m248 65l-183 0c-6 0-11 5-11 11l0 183c0 4 3 8 7 10 4 1 8 0 11-3l183-183c3-3 4-7 3-11-2-4-6-7-10-7z m-172 22l146 0-146 146z"/>
<glyph unicode="&#69;" d="M353 0l-36 0c-21 0-38 17-38 38l0 124-34 0 0-124c0-21-17-38-37-38l-37 0c-20 0-37 17-37 38l0 173-4-10c-7-19-27-33-47-33-6 0-12 1-17 3-13 5-22 14-28 27-5 12-5 26-1 38l52 130c8 20 27 33 48 33 4 0 9 0 13-1 2 63 51 114 112 114 52 0 96-37 109-88l9 25c8 20 27 34 49 34 5 0 11-1 17-3 12-5 22-15 28-27 5-13 5-27 0-40l-52-132c-6-15-17-26-31-31l0-212c0-21-17-38-38-38z m-118 184l55 0c6 0 10-5 10-11l0-135c0-9 8-17 17-17l36 0c9 0 17 8 17 17l0 220c0 5 3 10 8 10 11 2 20 10 24 20l53 133c2 8 2 16-1 23-3 8-9 13-16 16-15 5-32-4-38-19l-29-73c-2-5-8-8-13-7-5 2-8 7-7 13 1 7 2 14 2 21 0 53-41 96-91 96-50 0-90-43-90-96 0-5 0-10 1-15 0-4-2-9-6-11-4-2-9-1-12 2-3 2-6 4-9 5-14 6-31-3-37-18l-52-129c-2-8-2-16 1-23 3-7 8-12 15-15 15-5 31 3 37 18l24 61c2 5 7 8 12 7 5-1 9-6 9-11l0-228c0-9 7-17 16-17l37 0c9 0 16 8 16 17l0 135c0 6 5 11 11 11z m25 148c-10 0-45 2-61 18-19 18-19 78 0 97 16 16 51 17 61 17 10 0 45-1 61-17 13-13 14-41 14-49 0-10-1-36-14-48-16-16-51-18-61-18z m0 111c-21 0-40-5-46-11-11-11-11-57 0-67 6-7 25-11 46-11 20 0 39 4 46 11 4 4 8 16 8 33 0 17-4 30-8 34-7 6-26 11-46 11z"/>
<glyph unicode="&#70;" d="M436 0l-360 0c-17 0-30 6-36 18-6 11-4 25 5 40l139 219 0 162-1 0c-21 0-39 16-39 36 0 21 18 37 39 37l146 0c21 0 39-16 39-37 0-20-18-36-39-36l-1 0 0-162 139-219c9-15 11-29 5-40-6-12-19-18-36-18z m-253 491c-10 0-17-7-17-16 0-8 7-15 17-15l12 0c5 0 10-5 10-11l0-176c0-2 0-4-1-5l-141-222c-5-7-6-14-4-18 2-4 9-7 17-7l360 0c8 0 15 3 17 7 2 4 1 11-4 18l-141 222c-1 1-1 3-1 5l0 176c0 6 5 11 10 11l12 0c10 0 17 7 17 15 0 9-7 16-17 16z"/>
<glyph unicode="&#71;" d="M115 27c-32 0-62 12-85 34-5 4-5 11-1 15 4 5 11 5 15 1 20-19 45-29 71-29 57 0 103 47 103 103 0 9-1 17-3 26-2 5 0 9 4 12 5 2 10 2 13-1 13-13 36-12 48 2 3 3 9 4 13 2 4-2 6-8 5-12-3-10-4-19-4-29 0-56 46-103 103-103 26 0 51 10 70 29 5 4 11 4 15-1 4-4 4-11 0-15-23-22-53-34-85-34-69 0-124 56-124 124 0 3 0 6 0 9-11-4-23-4-34 0 0-3 0-6 0-9 0-68-55-124-124-124z m373 56c-1 0-2 0-3 0-5 2-9 8-7 13 6 26 2 53-11 76-13 24-35 41-62 48-26 7-54 4-78-10-8-4-15-10-22-17-3-3-9-4-13-1-4 2-6 7-5 12 1 2 1 5 1 8 0 16-11 30-27 33-5 1-8 5-8 10 0 5 3 9 8 10 10 3 20 6 28 11 50 28 67 91 39 141-13 22-34 39-59 47-6 2-9 8-7 13 1 6 7 9 13 7 30-9 56-29 72-57 33-59 13-135-47-169-3-2-6-4-9-5 8-8 15-18 17-29 3 2 6 3 9 5 28 16 62 20 94 12 32-9 58-30 75-59 16-27 20-60 12-91-1-5-5-8-10-8z m-464 0c-5 0-9 3-10 8-8 31-4 64 12 91 17 29 43 50 75 59 32 8 66 4 95-12 2-1 4-3 6-4 3 11 9 21 18 29-3 1-5 2-8 4-60 34-80 110-47 169 16 28 42 48 72 57 6 2 12-1 13-7 2-5-1-11-7-13-25-8-46-25-59-47-28-50-11-113 39-141 8-4 17-8 27-10 5-1 9-6 8-11 0-5-3-9-9-10-16-3-27-17-27-33 0-2 0-4 0-6 1-5-1-9-5-12-4-2-9-1-13 2-6 6-12 10-19 14-24 14-52 17-78 10-27-7-49-24-62-48-13-23-17-50-11-76 2-5-2-11-7-13-1 0-2 0-3 0z m147 223c-3 0-6 1-8 4-4 4-4 11 1 15 26 23 59 35 94 35 33 0 65-12 91-33 4-4 5-11 1-15-4-5-10-5-15-2-22 19-49 29-77 29-30 0-58-11-80-30-2-2-5-3-7-3z m43-222c-1 0-3 1-4 1-56 20-94 74-94 134 0 5 0 11 1 16 1 6 6 11 12 10 6-1 10-6 9-12 0-5-1-10-1-14 0-51 32-97 80-114 6-2 9-8 7-13-2-5-6-8-10-8z m85 0c-5 0-9 2-10 7-2 5 1 11 6 13 50 17 83 63 83 115 0 4 0 9-1 14-1 6 3 11 9 12 6 0 11-4 12-10 1-5 1-11 1-16 0-62-39-116-97-135-1 0-2 0-3 0z"/>
<glyph unicode="&#72;" d="M150 0c-37 0-72 14-98 40l-12 12c-26 26-40 61-40 98 0 36 14 71 40 97l225 225c26 26 61 40 97 40 37 0 72-14 98-40l12-12c26-26 40-61 40-98 0-36-14-71-40-97l-225-225c-26-26-61-40-97-40z m212 491c-31 0-60-12-82-34l-225-225c-22-22-34-51-34-82 0-32 12-61 34-83l12-12c22-22 51-34 83-34 31 0 60 12 82 34l225 225c22 22 34 51 34 82 0 32-12 61-34 83l-12 12c-22 22-51 34-83 34z m-12-339c-3 0-6 1-8 3l-187 187c-4 4-4 11 0 15 4 4 11 4 15 0l187-187c4-4 4-11 0-15-2-2-5-3-7-3z"/>
<glyph unicode="&#73;" d="M268 0c-9 0-18 1-26 1-4 1-7 1-10 1-22 1-51 11-66 33-16 26-1 51 10 70 5 7 8 14 11 20 13 33 1 40-3 42-14 9-21 3-35-11-3-2-5-4-8-6l-3-3c-18-16-44-39-75-33-12 2-22 9-28 19-5 9-5 19 0 30 6 14 18 21 28 28 12 8 20 14 21 24 2 17-1 19-14 28-3 2-7 4-11 7-21 16-32 44-27 72 5 26 24 29 38 32 8 2 15 3 20 7 9 5 10 12 11 24 1 7 1 15 5 23 3 10 11 17 21 21 17 7 40 3 55-3 5-3 10-8 15-14 4-5 14-15 18-15-1 0 0 0 1 2 0 1 0 4 0 5-1 5-1 9 0 13 2 6 4 10 6 14 3 4 4 7 5 11 0 5 4 9 9 10 18 2 31-8 41-16 8-5 14-10 22-11 0 0 0 0 0 0 19 0 41 35 43 56 1 4 4 8 8 9 0 1 1 1 1 2 15 14 25 23 51 19 15-2 42-18 49-35 8-24-7-51-14-61-4-5-7-10-11-14-13-17-22-28-16-50 2-7 7-10 16-15 5-2 10-5 15-8 22-16 35-36 38-57 3-23 10-83-38-96-4-1-8-2-12-3-19-3-31-6-30-13 0-3 5-7 10-10 6-5 12-10 16-17 4-10 3-24 2-35 0-2 0-4 0-6 0-5-4-9-9-10-14-1-27 1-39 4-12 3-22 5-34 3-17-3-18-11-19-31-1-15-2-34-17-47-11-8-26-10-41-10z m-96 193c7 0 15-2 23-7 15-9 29-28 12-69-3-8-8-15-12-23-13-20-19-34-11-47 11-16 32-23 49-24 3 0 7 0 11 0 16-2 41-4 51 4 8 6 9 16 10 31 1 19 2 45 37 51 15 3 29 0 42-3 7-2 15-4 22-4 1 7 1 17-1 21-1 3-5 6-9 9-8 6-17 13-18 24-4 29 29 34 47 37 4 1 7 2 10 2 21 6 28 29 23 73-3 21-20 35-29 42-4 3-8 5-12 7-11 6-23 12-27 28-10 32 5 51 19 69 3 4 7 9 10 13 9 12 16 29 12 41-4 9-22 20-33 22-16 2-20-1-32-13-1-1-2-2-3-3-6-29-34-71-65-70-14 1-25 9-34 16-7 5-12 9-18 10-2-3-3-6-5-9-2-4-4-6-4-9 0-1 0-4 0-6 0-6 1-13-3-18-5-9-12-12-17-12-14-2-25 11-35 21-3 4-8 8-9 9-11 5-27 8-38 3-5-2-8-5-9-9-3-5-3-11-4-17-1-13-3-28-19-40-10-6-20-8-29-10-14-3-19-4-21-15-3-20 4-40 19-51 3-2 7-4 10-6 14-10 26-18 24-48-3-21-19-32-31-40-9-5-17-11-21-19-2-4-2-8 0-11 2-4 7-7 13-8 21-4 40 13 57 28l3 3c2 2 5 4 7 6 10 10 22 21 38 21z m44 12c-34 0-62 28-62 62 0 34 28 62 62 62 35 0 62-28 62-62 0-34-27-62-62-62z m0 103c-22 0-41-19-41-41 0-23 19-41 41-41 23 0 41 18 41 41 0 22-18 41-41 41z m157-99c-26 0-46 21-46 46 0 26 20 46 46 46 25 0 46-20 46-46 0-25-21-46-46-46z m0 71c-14 0-25-11-25-25 0-13 11-24 25-24 13 0 24 11 24 24 0 14-11 25-24 25z"/>
<glyph unicode="&#74;" d="M375 187l-167 0c-20 0-28 9-30 15-2 5-5 15 6 28l62 144 0 65c-10 4-17 13-17 24l0 1c0 15 13 26 29 26l67 0c16 0 29-11 29-26l0-1c0-11-7-20-17-24l0-65 62-144c11-13 8-23 6-28-2-6-10-15-30-15z m-117 282c-4 0-8-3-8-5l0-1c0-3 3-5 7-5l10-1 0-87-66-152c-3-4-4-7-4-7 1-1 3-3 11-3l167 0c8 0 10 2 11 3 0 0-1 3-4 6l-2 3-64 150 0 87 10 1c4 0 7 2 7 5l0 1c0 2-4 5-8 5l-67 0z m207-447l-418 0c-26 0-47 17-47 39 0 22 21 40 47 40l418 0c26 0 47-18 47-40 0-22-21-39-47-39z m-418 58c-14 0-26-9-26-19 0-10 12-18 26-18l418 0c14 0 26 8 26 18 0 10-12 19-26 19z m35 7c-6 0-10 5-10 10l0 358c0 6 4 11 10 11 6 0 11-5 11-11l0-358c0-5-5-10-11-10z m351 319l-385 0c-6 0-10 4-10 10 0 6 4 11 10 11l385 0c6 0 11-5 11-11 0-6-5-10-11-10z m-246-319c-2 0-3 0-4 0-5 2-8 8-6 14l34 97c2 5 8 8 13 6 6-2 9-8 7-13l-34-97c-2-4-6-7-10-7z m209 0c-4 0-8 3-10 7l-34 97c-2 5 1 11 7 13 5 2 11-1 13-6l34-97c2-6-1-12-6-14-1 0-3 0-4 0z"/>
<glyph unicode="&#75;" d="M282 0c-99 0-179 81-179 180 0 37 11 72 32 102l-83 117c-4 5-2 11 2 15l43 30c2 1 5 2 7 1 3 0 6-2 7-4l77-108c8 5 17 9 25 12l0 95c-23 1-42 16-42 36 0 20 20 36 44 36l135 0c24 0 44-16 44-36 0-20-19-35-42-36l0-95c66-27 110-93 110-165 0-99-80-180-180-180z m-207 402l82-114c2-4 2-9-1-13-21-27-32-60-32-95 0-88 71-159 158-159 88 0 159 71 159 159 0 66-42 125-104 148-4 2-7 6-7 10l0 112c0 6 5 11 11 11l9 0c12 0 22 7 22 15 0 8-10 15-22 15l-135 0c-12 0-23-7-23-15 0-8 11-15 23-15l9 0c6 0 10-5 10-11l0-112c0-4-2-8-7-10-12-4-24-11-35-19-5-3-12-2-15 3l-77 108z"/>
<glyph unicode="&#76;" d="M256 120c-144 0-256 49-256 112 0 38 39 72 106 92 6 2 12-1 14-7 2-5-2-11-7-13-57-18-92-44-92-72 0-44 95-91 235-91 140 0 235 47 235 91 0 27-34 54-91 72-6 2-9 8-7 13 2 6 8 9 13 7 67-21 106-54 106-92 0-63-112-112-256-112z m-8 98c-52 0-103 12-152 36-4 2-7 6-6 10 4 98 77 174 166 174 86 0 157-70 166-164 1-4-1-8-5-10-55-30-112-46-169-46z m-137 52c94-43 195-40 289 9-10 79-71 138-144 138-75 0-137-64-145-147z m-92-196c-2 0-4 1-6 2-5 3-6 10-3 15l53 75c4 5 10 6 15 2 5-3 6-10 3-14l-53-76c-2-2-6-4-9-4z m475 0c-3 0-7 2-9 4l-53 76c-3 4-2 11 3 14 5 4 11 3 15-2l53-75c3-5 2-12-3-15-2-1-4-2-6-2z m-211 201l-42 0c-6 0-11 5-11 11 0 6 5 10 11 10l42 0c6 0 11-4 11-10 0-6-5-11-11-11z"/>
<glyph unicode="&#77;" d="M256 0c-26 0-64 0-65 53l-103 28 0 57 103 78 0 88c0 47 29 86 65 86 36 0 65-39 65-86l0-88 103-78 0-57-103-28c-1-53-39-53-65-53z m-147 97l104-27 0-17c0-29 11-32 43-32 32 0 43 3 43 32l0 17 104 27 0 31-104 77 0 99c0 35-20 64-43 64-23 0-43-29-43-64l0-99-104-77z m16 45c-1 0-3 1-4 2-4 1-6 5-6 9l0 169c0 36 21 65 47 65 3 0 5-1 7-1 3 71 40 126 87 126 47 0 84-55 87-126 2 0 4 1 7 1 26 0 47-29 47-65l0-169c0-4-2-8-6-9-3-2-8-2-11 1l-77 57c-2 2-4 5-4 9l0 93c0 35-20 64-43 64-23 0-43-29-43-64l0-93c0-4-2-7-4-9l-77-57c-2-2-4-3-7-3z m37 223c-14 0-26-20-26-43l0-148 56 42 0 88c0 22 6 43 17 59 13 17 29 27 47 27 36 0 65-39 65-86l0-88 55-42 0 148c0 23-12 43-26 43-4 0-7-1-11-4-3-2-8-3-11-1-4 2-6 6-6 10l0 2c0 1 0 3 0 4 0 62-30 115-66 115-36 0-66-53-66-115 0-1 0-3 0-4l0-2c0-4-2-8-6-10-3-2-8-1-11 1-4 3-7 4-11 4z m94-365l-190 0c-5 0-10 5-10 11l0 37c0 4 3 8 7 10l42 14 0 12c0 4 2 7 5 9 2 2 6 3 9 2l86-23c5-2 8-6 8-11l0-8c0-29 11-32 43-32 6 0 11-4 11-10 0-6-5-11-11-11z m-179 21l122 0c-5 8-7 18-7 32l-65 17 0-5c0-5-3-9-7-10l-43-15 0-19z m369-21l-190 0c-6 0-11 5-11 11 0 6 5 10 11 10 32 0 43 3 43 32l0 8c0 5 3 9 8 11l86 23c3 1 7 0 9-2 3-2 5-5 5-9l0-12 42-14c4-2 7-6 7-10l0-37c0-6-5-11-10-11z m-133 21l122 0 0 19-43 15c-4 1-7 5-7 10l0 5-64-17c-1-14-3-24-8-32z m-75 302c-4 0-7 2-9 6-3 5-1 11 4 14l5 2c5 3 11 1 14-4 3-6 1-12-4-15l-5-2c-1-1-3-1-5-1z m36 0c-2 0-4 0-5 1l-6 3c-5 3-7 9-4 14 2 6 9 8 14 5l6-3c5-3 7-9 4-14-2-4-5-6-9-6z m-72-221c-6 0-11 5-11 11l0 98c0 6 5 10 11 10 5 0 10-4 10-10l0-98c0-6-5-11-10-11z m108 0c-6 0-11 5-11 11l0 98c0 6 5 10 11 10 6 0 10-4 10-10l0-98c0-6-4-11-10-11z"/>
<glyph unicode="&#78;" d="M298 0c-99 0-181 101-181 226 0 124 82 225 181 225 100 0 181-101 181-225 0-125-81-226-181-226z m0 430c-88 0-159-92-159-204 0-113 71-205 159-205 88 0 160 92 160 205 0 112-72 204-160 204z m169-190l-333 0c-6 0-11 5-11 11 0 6 5 11 11 11l333 0c6 0 11-5 11-11 0-6-5-11-11-11z m-169 47c-18 0-32 22-32 50 0 29 14 51 32 51 19 0 32-22 32-51 0-28-13-50-32-50z m0 80c-2 0-10-10-10-30 0-19 8-29 10-29 3 0 11 10 11 29 0 20-8 30-11 30z m3 0c-6 0-11 4-11 10l0 63c0 6 5 11 11 11 5 0 10-5 10-11l0-63c0-6-5-10-10-10z m0-127c-6 0-11 5-11 11l0 48c0 6 5 11 11 11 5 0 10-5 10-11l0-48c0-6-5-11-10-11z m-258 156c-2 0-5 1-7 3-4 5-4 11 0 15 8 8 15 16 21 23 13 17 27 33 51 44 6 2 12 5 18 8 21 10 43 21 68 23 50 3 98-24 119-68 2-5 0-11-5-14-6-2-12 0-15 5-17 36-56 58-97 55-21-1-40-10-61-20-6-3-12-6-19-9-18-8-30-22-42-37-7-8-14-17-23-25-2-2-5-3-8-3z"/>
<glyph unicode="&#79;" d="M358 380c-29 0-53 23-53 52 0 29 24 53 53 53 29 0 52-24 52-53 0-29-23-52-52-52z m0 83c-17 0-31-14-31-31 0-17 14-31 31-31 17 0 31 14 31 31 0 17-14 31-31 31z m-203-83c-29 0-53 23-53 52 0 29 24 53 53 53 29 0 52-24 52-53 0-29-23-52-52-52z m0 83c-18 0-32-14-32-31 0-17 14-31 32-31 17 0 31 14 31 31 0 17-14 31-31 31z m203-436c-29 0-53 24-53 53 0 29 24 52 53 52 29 0 52-23 52-52 0-29-23-53-52-53z m0 84c-17 0-31-14-31-31 0-17 14-31 31-31 17 0 31 14 31 31 0 17-14 31-31 31z m-203-84c-29 0-53 24-53 53 0 29 24 52 53 52 29 0 52-23 52-52 0-29-23-53-52-53z m0 84c-18 0-32-14-32-31 0-17 14-31 32-31 17 0 31 14 31 31 0 17-14 31-31 31z m304 92c-29 0-52 24-52 53 0 29 23 53 52 53 29 0 53-24 53-53 0-29-24-53-53-53z m0 84c-17 0-31-14-31-31 0-17 14-31 31-31 18 0 32 14 32 31 0 17-14 31-32 31z m-406-84c-29 0-53 24-53 53 0 29 24 53 53 53 29 0 52-24 52-53 0-29-23-53-52-53z m0 84c-18 0-32-14-32-31 0-17 14-31 32-31 17 0 31 14 31 31 0 17-14 31-31 31z m386-5c-4 0-8 1-10 5l-60 104c-3 5-1 11 4 14 5 3 12 1 15-4l60-103c3-6 1-12-4-15-2-1-4-1-5-1z m-123 140l-119 0c-6 0-11 4-11 10 0 6 5 11 11 11l119 0c6 0 11-5 11-11 0-6-5-10-11-10z m-243-140c-1 0-3 0-5 1-5 3-7 9-4 15l60 104c3 5 10 6 15 3 5-3 7-9 4-14l-60-104c-2-4-6-5-10-5z m60-177c-3 0-7 2-9 5l-60 104c-3 6-1 12 4 15 5 3 12 1 15-4l60-104c3-5 1-11-4-14-2-1-4-2-6-2z m183-36l-119 0c-6 0-11 5-11 11 0 6 5 10 11 10l119 0c6 0 11-4 11-10 0-6-5-11-11-11z m63 36c-2 0-4 1-6 2-5 3-7 9-4 14l60 104c3 5 10 7 15 4 5-3 7-9 4-15l-60-103c-2-4-6-6-9-6z"/>
<glyph unicode="&#80;" d="M258 59c-89 0-161 72-161 160 0 66 41 125 102 149l0 133c0 6 4 11 10 11l98 0c6 0 10-5 10-11l0-133c61-24 101-83 101-149 0-88-72-160-160-160z m-38 432l0-130c0-5-3-9-7-10-56-20-94-72-94-132 0-77 62-139 139-139 77 0 139 62 139 139 0 60-38 112-94 132-4 1-7 5-7 10l0 130z m181-313l-286 0c-6 0-11 4-11 10 0 6 5 11 11 11l286 0c6 0 11-5 11-11 0-6-5-10-11-10z m-361-178c-2 0-5 1-8 4-3 4-3 11 1 15l68 58c2 2 5 3 7 3l157 0c6 0 10-5 10-11 0-6-4-10-10-10l-153 0-65-56c-2-2-4-3-7-3z m432 0c-3 0-5 1-7 3l-65 56-153 0c-6 0-10 4-10 10 0 6 4 11 10 11l157 0c2 0 5-1 7-3l67-58c5-4 5-11 2-15-3-3-6-4-8-4z"/>
<glyph unicode="&#81;" d="M274 0c-1 0-2 0-3 1-6 2-9 8-7 13 4 12 6 20 8 27 2 10 4 17 11 26 4 4 9 7 12 10 11 8 22 12 33 15 12 3 25 3 37 2 12-1 24-2 33 3 2 1 3 1 3 1 0 1-3 6-5 9-4 7-9 16-7 27 2 9 10 14 15 18 1 0 1 0 1 0-1 2-4 4-5 5-1 1-2 2-3 2-3 3-4 9-2 13 4 7 11 11 18 14-5 8-6 18 0 27 7 11 19 13 29 15 4 0 8 1 10 2 0 0 0 0 0 0l-3 4c-5 6-9 11-14 16-2 3-6 5-9 8-11 10-23 22-26 37-2 10 2 19 4 26l2 4c2 6 3 13 3 21-1 13-3 30-5 35-29 70-92 110-172 110-97 0-175-79-175-175 0-26 6-53 18-77 6-12 13-23 21-33l2-2c9-11 17-20 17-39 1-5 1-12 0-18 0-12-5-26-15-40-6-9-11-19-17-29-8-14-15-28-25-40-3-5-10-6-15-3-4 4-5 11-2 15 9 12 16 25 23 38 6 10 12 21 19 31 7 11 11 21 11 29 0 6 0 11 0 16 0 12-4 16-12 26l-2 3c-10 11-18 23-24 36-13 27-21 57-21 87 0 108 89 196 197 196 89 0 159-45 192-123 4-11 6-37 6-42 1-11-1-20-4-30l-2-3c-2-6-4-11-3-15 1-8 11-17 20-25 3-3 7-6 10-10 5-5 9-10 14-16l3-4c5-5 10-11 8-19-1-8-9-11-14-14-5-2-11-3-16-4-7-1-13-2-15-6-3-4 3-10 7-12 3-2 4-6 4-10 0-4-3-7-6-9-3-1-6-2-9-2-2-1-3-1-5-2 4-4 7-9 7-15-1-9-8-14-13-17-2-1-5-4-6-5 0-2 3-8 5-12 4-8 9-16 6-26-2-6-7-10-14-14-14-6-29-5-44-4-10 0-20 1-29-2-9-2-18-5-25-10-4-3-8-6-9-8-4-4-5-7-7-17-2-7-4-16-9-29-1-4-5-7-10-7z m-70 0c-1 0-1 0-2 0-6 1-10 6-9 12 0 1 8 55 20 105 11 47 61 55 86 52l107 0c6 0 11-5 11-11 0-5-5-10-11-10l-107 0c-1 0-1 0-1 0-3 0-55 5-64-36-12-49-20-102-20-103-1-5-5-9-10-9z"/>
<glyph unicode="&#82;" d="M148 329c-26 0-47 28-47 63l0 99-90 0c-6 0-11 4-11 10 0 6 5 11 11 11l101 0c6 0 11-5 11-11l0-109c0-22 12-42 25-42 14 0 25 20 25 42l0 33c0 6 5 10 11 10 6 0 11-4 11-10l0-33c0-35-21-63-47-63z m72 0c-26 0-47 28-47 63l0 33c0 6 5 10 11 10 6 0 11-4 11-10l0-33c0-22 12-42 25-42 14 0 25 20 25 42l0 33c0 6 5 10 11 10 6 0 11-4 11-10l0-33c0-35-21-63-47-63z m72 0c-26 0-47 28-47 63l0 33c0 6 5 10 11 10 6 0 11-4 11-10l0-33c0-22 12-42 25-42 14 0 25 20 25 42l0 33c0 6 5 10 11 10 6 0 11-4 11-10l0-33c0-35-21-63-47-63z m72 0c-26 0-47 28-47 63l0 33c0 6 5 10 11 10 6 0 11-4 11-10l0-33c0-22 11-42 25-42 13 0 25 20 25 42l0 109c0 6 5 11 11 11l101 0c6 0 11-5 11-11 0-6-5-10-11-10l-90 0 0-99c0-35-21-63-47-63z m137-329l-101 0c-6 0-11 5-11 11l0 109c0 22-12 42-25 42-14 0-25-20-25-42l0-33c0-6-5-10-11-10-6 0-11 4-11 10l0 33c0 35 21 63 47 63 26 0 47-28 47-63l0-99 90 0c6 0 11-4 11-10 0-6-5-11-11-11z m-389 0l-101 0c-6 0-11 5-11 11 0 6 5 10 11 10l90 0 0 99c0 35 21 63 47 63 26 0 47-28 47-63l0-33c0-6-5-10-11-10-6 0-11 4-11 10l0 33c0 22-11 42-25 42-13 0-25-20-25-42l0-109c0-6-5-11-11-11z m144 77c-6 0-11 4-11 10l0 33c0 22-11 42-25 42-13 0-25-20-25-42l0-33c0-6-5-10-11-10-6 0-11 4-11 10l0 33c0 35 21 63 47 63 26 0 47-28 47-63l0-33c0-6-5-10-11-10z m72 0c-6 0-11 4-11 10l0 33c0 22-11 42-25 42-13 0-25-20-25-42l0-33c0-6-5-10-11-10-6 0-11 4-11 10l0 33c0 35 21 63 47 63 26 0 47-28 47-63l0-33c0-6-5-10-11-10z m70 168l-284 0c-6 0-11 5-11 11 0 6 5 11 11 11l284 0c6 0 11-5 11-11 0-6-5-11-11-11z"/>
<glyph unicode="&#83;" d="M148 79c-53 0-102 17-144 48-4 4-5 10-2 15l269 366c3 4 10 5 14 2 63-44 101-117 101-194 0-130-107-237-238-237z m-122 59c36-25 78-38 122-38 119 0 217 97 217 216 0 67-31 129-84 170z m475-138l-245 0c-5 0-9 3-10 7-2 4-1 9 3 12l154 132c2 2 5 3 8 3 3 0 6-2 8-5l91-132c2-4 3-8 1-11-2-4-6-6-10-6z m-216 21l196 0-73 107z m-142 285c-2 0-4 1-6 2l-124 94c-5 3-6 10-2 15 3 4 10 5 15 2l124-94c5-4 6-10 2-15-2-3-5-4-9-4z"/>
<glyph unicode="&#84;" d="M256 0c-71 0-129 58-129 129 0 51 31 97 77 118l0 254c0 6 4 11 10 11l84 0c6 0 10-5 10-11l0-254c46-21 77-67 77-118 0-71-58-129-129-129z m-31 491l0-251c0-5-3-9-7-10-42-16-70-57-70-101 0-59 49-108 108-108 59 0 108 49 108 108 0 44-28 85-70 101-4 1-7 5-7 10l0 251z m110 0l-158 0c-6 0-10 4-10 10 0 6 4 11 10 11l158 0c6 0 10-5 10-11 0-6-4-10-10-10z"/>
<glyph unicode="&#85;" d="M213 69c-1 0-2 0-3 0-5 2-9 8-7 13l126 422c2 6 7 9 13 8 6-2 9-8 7-14l-125-422c-2-4-6-7-11-7z m49-69c-35 0-63 28-63 63 0 34 28 63 63 63 34 0 62-29 62-63 0-35-28-63-62-63z m0 104c-23 0-42-18-42-41 0-23 19-42 42-42 22 0 41 19 41 42 0 23-19 41-41 41z m-183 99c-4 0-9 3-10 7-2 6 2 12 7 13l422 126c6 2 12-1 14-7 1-6-2-11-8-13l-422-126c-1 0-2 0-3 0z m-16-4c-35 0-63 28-63 63 0 34 28 62 63 62 34 0 63-28 63-62 0-35-29-63-63-63z m0 104c-23 0-42-19-42-41 0-23 19-42 42-42 23 0 41 19 41 42 0 22-18 41-41 41z"/>
<glyph unicode="&#86;" d="M459 42l-406 0c-29 0-53 24-53 53l0 262c0 30 24 53 53 53l406 0c29 0 53-23 53-53l0-262c0-29-24-53-53-53z m-406 347c-18 0-32-14-32-32l0-262c0-18 14-32 32-32l406 0c18 0 32 14 32 32l0 262c0 18-14 32-32 32z m370 0c-1 0-1 0-2 0l-335 60c-5 1-9 6-8 12 1 6 6 10 12 9l335-60c5-1 9-6 8-12-1-5-5-9-10-9z m-105-297c-74 0-134 60-134 134 0 74 60 135 134 135 74 0 135-61 135-135 0-74-61-134-135-134z m0 247c-62 0-113-51-113-113 0-62 51-113 113-113 63 0 113 51 113 113 0 62-50 113-113 113z m-225-67c-23 0-41 18-41 41 0 23 18 42 41 42 23 0 42-19 42-42 0-23-19-41-42-41z m0 61c-11 0-20-9-20-20 0-11 9-20 20-20 11 0 20 9 20 20 0 11-9 20-20 20z m0-197c-23 0-41 19-41 42 0 23 18 41 41 41 23 0 42-18 42-41 0-23-19-42-42-42z m0 62c-11 0-20-9-20-20 0-11 9-20 20-20 11 0 20 9 20 20 0 11-9 20-20 20z"/>
<glyph unicode="&#87;" d="M62 193c-34 0-62 29-62 64 0 36 28 65 62 65 35 0 63-29 63-65 0-35-28-64-63-64z m0 108c-22 0-41-20-41-44 0-24 19-43 41-43 23 0 41 19 41 43 0 24-18 44-41 44z m388-108c-35 0-63 29-63 64 0 36 28 65 63 65 34 0 62-29 62-65 0-35-28-64-62-64z m0 108c-23 0-41-20-41-44 0-24 18-43 41-43 22 0 41 19 41 43 0 24-19 44-41 44z m-5-1c-5 0-10 4-11 9-20 107-95 182-182 182-88 0-163-75-183-182-1-6-7-10-13-8-5 1-9 6-8 12 22 117 105 199 204 199 98 0 182-82 203-199 1-6-3-11-8-13-1 0-2 0-2 0z m-193-300c-98 0-182 82-204 198l-1 4c-1 6 3 11 9 12 6 1 11-3 12-9l1-3c20-106 95-181 183-181 87 0 164 78 183 184 1 6 6 10 12 9 6-1 10-6 9-12-21-117-107-202-204-202z m167 290c-2 0-4 0-6 2-35 23-95 37-161 37-63 0-122-13-158-35-5-3-11-1-14 4-3 5-2 12 3 15 39 23 102 37 169 37 70 0 135-15 173-41 5-3 6-9 3-14-2-3-6-5-9-5z m-167-128c-68 0-132 14-170 38-5 4-7 10-4 15 3 5 10 7 15 4 35-22 95-36 159-36 66 0 129 15 163 38 5 4 11 3 15-2 3-5 2-12-3-15-38-26-104-42-175-42z m198 147c-6 0-11 5-11 11l0 181c0 6 5 11 11 11 6 0 10-5 10-11l0-181c0-6-4-11-10-11z m-392 0c-6 0-11 5-11 11l0 181c0 6 5 11 11 11 6 0 11-5 11-11l0-181c0-6-5-11-11-11z m392-303c-6 0-11 5-11 10l0 182c0 6 5 11 11 11 6 0 10-5 10-11l0-182c0-5-4-10-10-10z m-392 0c-6 0-11 5-11 10l0 182c0 6 5 11 11 11 6 0 11-5 11-11l0-182c0-5-5-10-11-10z"/>
<glyph unicode="&#88;" d="M274 0l-36 0c-48 0-88 40-88 88l0 413c0 6 5 11 11 11l190 0c6 0 11-5 11-11l0-413c0-48-40-88-88-88z m-103 491l0-403c0-37 30-67 67-67l36 0c37 0 67 30 67 67l0 403z m248 0l-326 0c-6 0-10 4-10 10 0 6 4 11 10 11l326 0c6 0 10-5 10-11 0-6-4-10-10-10z m-132-45l-84 0c-6 0-11 5-11 11 0 6 5 10 11 10l84 0c6 0 11-4 11-10 0-6-5-11-11-11z m-35-76l-49 0c-6 0-11 5-11 11 0 6 5 10 11 10l49 0c6 0 10-4 10-10 0-6-4-11-10-11z m35-76l-84 0c-6 0-11 5-11 11 0 6 5 10 11 10l84 0c6 0 11-4 11-10 0-6-5-11-11-11z m-35-76l-49 0c-6 0-11 5-11 11 0 5 5 10 11 10l49 0c6 0 10-5 10-10 0-6-4-11-10-11z m35-76l-84 0c-6 0-11 5-11 10 0 6 5 11 11 11l84 0c6 0 11-5 11-11 0-5-5-10-11-10z m-35-76l-49 0c-6 0-11 4-11 10 0 6 5 11 11 11l49 0c6 0 10-5 10-11 0-6-4-10-10-10z"/>
<glyph unicode="&#89;" d="M174 114c-2 0-5 0-7 0-6 0-11 5-10 11 0 6 5 11 11 10 32-1 59 9 82 32 51 53 68 160 62 243-2 31-12 54-30 67-30 22-72 11-73 11-6-1-11 2-13 8-1 5 2 11 8 13 2 0 52 13 90-15 24-17 37-45 40-83 5-81-9-198-69-259-25-25-56-38-91-38z m110-114c-2 0-4 0-6 0-98 8-117 85-120 114-34 0-64 13-88 38-60 61-75 178-69 259 3 38 16 66 40 83 38 28 88 15 90 15 6-2 9-8 8-13-2-6-8-9-13-8-1 0-43 11-73-11-18-13-28-36-31-67-5-83 12-191 63-243 23-23 50-33 82-32 3 0 6-1 8-3 2-2 3-5 3-8 0-3 2-95 101-103 22-1 81 10 94 80 1 5 6 9 12 8 6-1 10-6 9-12-13-72-72-97-110-97z m147 69c-45 0-81 38-81 86 0 47 36 85 81 85 45 0 81-38 81-85 0-48-36-86-81-86z m0 150c-33 0-60-29-60-64 0-36 27-65 60-65 33 0 60 29 60 65 0 35-27 64-60 64z"/>
<glyph unicode="&#90;" d="M256 0c-141 0-256 115-256 256 0 141 115 256 256 256 141 0 256-115 256-256 0-141-115-256-256-256z m0 491c-129 0-235-106-235-235 0-129 106-235 235-235 129 0 235 106 235 235 0 129-106 235-235 235z m0-370c-74 0-135 61-135 135 0 74 61 135 135 135 74 0 135-61 135-135 0-74-61-135-135-135z m0 248c-62 0-113-51-113-113 0-62 51-113 113-113 62 0 113 51 113 113 0 62-51 113-113 113z m211 79c0-26-21-47-47-47-26 0-48 21-48 47 0 26 22 47 48 47 26 0 47-21 47-47z m-253-289c0-17-14-32-32-32-18 0-32 15-32 32 0 18 14 32 32 32 18 0 32-14 32-32z"/>
<glyph unicode="&#48;" d="M232 227l-184 0c-26 0-48 22-48 49l0 121c0 27 22 49 48 49l184 0c27 0 48-22 48-49l0-121c0-27-21-49-48-49z m-184 197c-15 0-27-12-27-27l0-121c0-15 12-27 27-27l184 0c15 0 27 12 27 27l0 121c0 15-12 27-27 27z m65 0c-3 0-6 1-8 4l-59 66c-4 5-3 11 1 15 5 4 11 4 15-1l53-59 72 53c5 3 12 2 15-2 4-5 3-12-2-15l-81-59c-1-1-4-2-6-2z m378-424l-128 0c-11 0-21 10-21 22l0 203c0 12 10 22 21 22l128 0c11 0 21-10 21-22l0-203c0-12-10-22-21-22z m-128 226c1 0 0 0 0-1l0-203c0 0 1-1 1-1l126 0c0 0 1 1 1 1l0 203c0 1-1 1-1 1z m105-95l-83 0c-5 0-10 5-10 11l0 64c0 6 5 10 10 10l83 0c6 0 11-4 11-10l0-64c0-6-5-11-11-11z m-72 21l62 0 0 43-62 0z m7-63l-10 0c-6 0-11 5-11 11 0 6 5 10 11 10l10 0c6 0 11-4 11-10 0-6-5-11-11-11z m0-54l-10 0c-6 0-11 5-11 11 0 5 5 10 11 10l10 0c6 0 11-5 11-10 0-6-5-11-11-11z m58 54l-10 0c-6 0-11 5-11 11 0 6 5 10 11 10l10 0c6 0 11-4 11-10 0-6-5-11-11-11z m0-54l-10 0c-6 0-11 5-11 11 0 5 5 10 11 10l10 0c6 0 11-5 11-10 0-6-5-11-11-11z m-184 363l11 0 0-21-11 0z m109-21l-24 0 0 21 24 0z m-49 0l-24 0 0 21 24 0z m95 0l-21 0 0 21 11 0c6 0 10-4 10-10z m0-96l-21 0 0 24 21 0z m0 48l-21 0 0 24 21 0z m-21-72l21 0 0-11-21 0z m-72-189l11 0 0-21-11 0z m-22-21l-22 0 0 21 22 0z m-44 0l-21 0 0 21 21 0z m-43 0l-22 0 0 21 22 0z m-44 0l-22 0 0 21 22 0z m-44 0l-21 0 0 21 21 0z m-43 0l-11 0c-6 0-11 4-11 10l0 11 22 0z m0 43l-22 0 0 22 22 0z m0 44l-22 0 0 23 22 0z m0 45l-22 0 0 22 22 0z m-22 55l22 0 0-11-22 0z"/>
<glyph unicode="&#49;" d="M473 0l-434 0c-22 0-39 17-39 37l0 293c0 21 17 37 39 37 6 0 10-4 10-10 0-6-4-11-10-11-10 0-18-7-18-16l0-293c0-9 8-16 18-16l434 0c10 0 18 7 18 16l0 293c0 9-8 16-18 16l-292 0c-6 0-11 5-11 11 0 6 5 10 11 10l292 0c22 0 39-16 39-37l0-293c0-20-17-37-39-37z m-320 38l-82 0c-21 0-38 17-38 38l0 312c0 21 17 37 38 37l82 0c21 0 38-16 38-37l0-312c0-21-17-38-38-38z m-82 366c-9 0-17-7-17-16l0-312c0-9 8-16 17-16l82 0c9 0 17 7 17 16l0 312c0 9-8 16-17 16z m383-179l-231 0c-6 0-11 4-11 10l0 85c0 6 5 11 11 11l231 0c6 0 10-5 10-11l0-85c0-6-4-10-10-10z m-221 21l210 0 0 63-210 0z m66-79l-36 0c-5 0-10 5-10 11 0 6 5 11 10 11l36 0c6 0 11-5 11-11 0-6-5-11-11-11z m99 0l-36 0c-5 0-10 5-10 11 0 6 5 11 10 11l36 0c6 0 11-5 11-11 0-6-5-11-11-11z m-99-62l-36 0c-5 0-10 5-10 10 0 6 5 11 10 11l36 0c6 0 11-5 11-11 0-5-5-10-11-10z m99 0l-36 0c-5 0-10 5-10 10 0 6 5 11 10 11l36 0c6 0 11-5 11-11 0-5-5-10-11-10z m-99-63l-36 0c-5 0-10 5-10 11 0 6 5 10 10 10l36 0c6 0 11-4 11-10 0-6-5-11-11-11z m99 0l-36 0c-5 0-10 5-10 11 0 6 5 10 10 10l36 0c6 0 11-4 11-10 0-6-5-11-11-11z m36 308c-6 0-11 5-11 10l0 141c0 6 5 11 11 11 6 0 11-5 11-11l0-141c0-5-5-10-11-10z"/>
<glyph unicode="&#50;" d="M114 31c-27 0-48 24-48 53l0 241c0 6 5 10 11 10l74 0c6 0 10-4 10-10l0-241c0-29-21-53-47-53z m-27 283l0-230c0-18 12-31 27-31 14 0 26 13 26 31l0 230z m85 0l-117 0c-6 0-11 5-11 11 0 6 5 10 11 10l117 0c6 0 11-4 11-10 0-6-5-11-11-11z m230-227c-27 0-48 24-48 53l0 241c0 6 5 11 11 11l74 0c5 0 10-5 10-11l0-241c0-29-21-53-47-53z m-27 283l0-230c0-17 12-31 27-31 14 0 26 14 26 31l0 230z m85 0l-117 0c-6 0-11 5-11 11 0 6 5 11 11 11l117 0c6 0 11-5 11-11 0-6-5-11-11-11z m-204-370c-6 0-11 5-11 11l0 485c0 6 5 11 11 11 6 0 11-5 11-11l0-485c0-6-5-11-11-11z m245 0l-490 0c-6 0-11 5-11 11 0 6 5 10 11 10l490 0c6 0 11-4 11-10 0-6-5-11-11-11z m-245 243l-105 0c-6 0-11 4-11 10 0 6 5 11 11 11l105 0c6 0 11-5 11-11 0-6-5-10-11-10z m109 71l-109 0c-6 0-11 5-11 11 0 6 5 10 11 10l109 0c5 0 10-4 10-10 0-6-5-11-10-11z m-238 61c0 8-7 15-15 15-8 0-14-7-14-15 0-7 6-14 14-14 8 0 15 7 15 14z m-42 39c0 4-4 8-8 8-5 0-9-4-9-8 0-5 4-9 9-9 4 0 8 4 8 9z m42 28c0 4-3 7-6 7-4 0-7-3-7-7 0-3 3-6 7-6 3 0 6 3 6 6z m290-14c0 8-6 14-14 14-8 0-15-6-15-14 0-8 7-14 15-14 8 0 14 6 14 14z m-41 38c0 5-4 9-9 9-4 0-8-4-8-9 0-4 4-8 8-8 5 0 9 4 9 8z m42 29c0 4-3 6-7 6-3 0-6-2-6-6 0-3 3-6 6-6 4 0 7 3 7 6z"/>
<glyph unicode="&#51;" d="M221 0c-1 0-3 0-4 1-4 2-7 5-7 10l0 220-145 265c-1 4-1 8 1 11 2 3 5 5 9 5l362 0c4 0 8-2 9-5 2-4 2-8 0-11l-151-252 0-173c0-2-1-5-3-7l-63-61c-3-2-5-3-8-3z m-128 491l137-252c1-2 2-4 2-6l0-197 41 40 0 171c0 2 1 4 2 5l143 239z"/>
<glyph unicode="&#52;" d="M11 0c-4 0-7 2-9 5-2 3-3 7-1 10l222 491c1 4 5 6 9 6 5 0 8-2 10-6l222-491c1-3 1-7-1-10-2-3-5-5-9-5z m221 475l-205-454 411 0z m-160-339c-5 0-9 4-10 9-1 5 2 11 8 12l260 64c2 0 3 0 4 0l168-12c6 0 10-5 10-11 0-6-6-11-11-10l-167 12-259-63c-1-1-2-1-3-1z m251 61c-3 0-5 1-7 3l-157 147c-5 4-5 10-1 15 4 4 11 4 15 0l157-146c4-4 5-11 1-15-2-3-5-4-8-4z m-158 147l-139 0c-5 0-10 5-10 10 0 6 5 11 10 11l139 0c6 0 11-5 11-11 0-5-5-10-11-10z m-29-69l-110 0c-5 0-10 4-10 10 0 6 5 11 10 11l110 0c6 0 10-5 10-11 0-6-4-10-10-10z m-35-69l-75 0c-5 0-10 4-10 10 0 6 5 11 10 11l75 0c6 0 11-5 11-11 0-6-5-10-11-10z m-29-70l-46 0c-5 0-10 5-10 11 0 6 5 11 10 11l46 0c6 0 11-5 11-11 0-6-5-11-11-11z"/>
<glyph unicode="&#53;" d="M217 78c-120 0-217 97-217 217 0 120 97 217 217 217 120 0 217-97 217-217 0-120-97-217-217-217z m0 413c-108 0-196-88-196-196 0-108 88-196 196-196 108 0 196 88 196 196 0 108-88 196-196 196z m284-491c-2 0-5 1-7 3l-138 138c-5 4-5 11 0 15 4 5 11 5 15 0l138-138c4-4 4-11 0-15-2-2-5-3-8-3z"/>
<glyph unicode="&#54;" d="M233 123c-107 0-194 87-194 194 0 108 87 195 194 195 108 0 195-87 195-195 0-107-87-194-195-194z m0 368c-95 0-173-78-173-174 0-95 78-173 173-173 96 0 174 78 174 173 0 96-78 174-174 174z m0-413c-63 0-122 24-167 68-4 4-4 11 0 15 4 4 11 4 15 0 41-40 95-62 152-62 121 0 219 98 219 218 0 64-28 125-77 166-4 4-5 11-1 15 4 5 11 5 15 2 54-46 84-112 84-183 0-132-107-239-240-239z m0-78c-5 0-10 5-10 11l0 73c0 6 5 11 10 11 6 0 11-5 11-11l0-73c0-6-5-11-11-11z m109 0l-217 0c-6 0-11 5-11 11 0 6 5 10 11 10l217 0c6 0 11-4 11-10 0-6-5-11-11-11z"/>
<glyph unicode="&#55;" d="M343 94c-77 0-140 63-140 140 0 77 63 140 140 140 77 0 140-63 140-140 0-77-63-140-140-140z m0 258c-65 0-118-53-118-118 0-65 53-118 118-118 65 0 119 53 119 118 0 65-54 118-119 118z m-227-349c-43 0-77 35-77 77 0 42 34 76 77 76 42 0 76-34 76-76 0-42-34-77-76-77z m0 132c-31 0-56-25-56-55 0-31 25-55 56-55 30 0 55 24 55 55 0 30-25 55-55 55z m-66-47c-6 0-11 5-11 10l0 292c0 6 5 11 11 11 6 0 10-5 10-11l0-292c0-5-4-10-10-10z m422 146c-6 0-10 4-10 10l0 254c0 6 4 11 10 11 6 0 11-5 11-11l0-254c0-6-5-10-11-10z m-291-150c0 0-1 0-2 0-5 1-9 7-8 12l32 162c2 6 7 10 13 9 6-1 10-7 8-13l-32-162c-1-5-6-8-11-8z m10 295l-180 0c-6 0-11 5-11 11 0 6 5 11 11 11l175 0 79 103c2 3 5 5 9 5l227 0c6 0 11-5 11-11 0-6-5-11-11-11l-222 0-80-104c-2-2-5-4-8-4z m152-364c-6 0-11 5-11 11l0 208c0 6 5 11 11 11 6 0 11-5 11-11l0-208c0-6-5-11-11-11z m47 0l-93 0c-6 0-11 5-11 11 0 6 5 11 11 11l93 0c6 0 10-5 10-11 0-6-4-11-10-11z"/>
<glyph unicode="&#56;" d="M256 0c-61 0-110 49-110 110 0 37 17 70 47 91l0 244c0 37 28 67 63 67 35 0 63-30 63-67l0-244c30-21 47-54 47-91 0-61-49-110-110-110z m0 491c-23 0-42-21-42-46l0-250c0-4-2-7-5-9-26-16-42-45-42-76 0-49 40-89 89-89 49 0 89 40 89 89 0 31-16 60-42 76-3 2-5 5-5 9l0 250c0 25-19 46-42 46z m0-437c-32 0-58 26-58 58 0 32 26 58 58 58 32 0 58-26 58-58 0-32-26-58-58-58z m0 95c-20 0-37-17-37-37 0-21 17-37 37-37 20 0 37 16 37 37 0 20-17 37-37 37z m0 0c-6 0-11 5-11 11l0 285c0 6 5 11 11 11 6 0 11-5 11-11l0-285c0-6-5-11-11-11z"/>
<glyph unicode="&#57;" d="M256 202c-38 0-69 31-69 69 0 37 31 68 69 68 38 0 69-31 69-68 0-38-31-69-69-69z m0 116c-26 0-47-21-47-47 0-26 21-48 47-48 26 0 47 22 47 48 0 26-21 47-47 47z m245-74l-115 0c-3 0-6 1-8 3-2 3-3 6-2 9 0 5 1 10 1 15 0 43-24 84-63 105-2 1-4 4-5 7 0 3 0 6 2 9l67 92c4 5 10 6 15 3 74-47 119-128 119-216 0-6 0-12-1-17 0-6-5-10-10-10z m-103 21l93 0c0 2 0 4 0 6 0 77-38 148-101 192l-55-75c39-26 63-70 63-117 0-2 0-4 0-6z m-272-21l-115 0c-5 0-10 4-10 10-1 5-1 11-1 17 0 94 52 180 135 225 5 3 11 1 14-3l62-97c1-3 2-6 1-9-1-3-3-5-6-7-43-19-71-62-71-109 0-5 1-10 1-15 1-3 0-6-2-9-2-2-5-3-8-3z m-105 21l93 0c0 2 0 4 0 6 0 51 28 98 73 123l-50 79c-72-43-116-119-116-202 0-2 0-4 0-6z m235-250c-43 0-86 11-124 31-5 3-7 10-4 15l54 100c1 3 4 5 7 6 2 0 5 0 8-1 18-11 38-16 59-16 24 0 48 7 68 21 2 1 5 2 8 1 3 0 5-2 7-5l59-97c3-5 1-12-4-15-41-26-89-40-138-40z m-104 45c32-16 68-24 104-24 42 0 82 11 118 32l-48 79c-39-22-89-24-130-5z"/>
<glyph unicode="&#33;" d="M61 0c-5 0-10 5-10 11l0 490c0 6 5 11 10 11 6 0 11-5 11-11l0-490c0-6-5-11-11-11z m389 0c-5 0-10 5-10 11l0 490c0 6 5 11 10 11 6 0 11-5 11-11l0-490c0-6-5-11-11-11z m51 0l-490 0c-6 0-11 5-11 11 0 6 5 10 11 10l490 0c6 0 11-4 11-10 0-6-5-11-11-11z m-245 61c-68 0-123 56-123 123 0 47 26 89 68 110l0 151c0 6 4 11 10 11l90 0c6 0 10-5 10-11l0-151c42-21 68-63 68-110 0-67-55-123-123-123z m-34 373l0-147c0-4-3-8-6-10-38-16-62-52-62-93 0-56 46-101 102-101 56 0 102 45 102 101 0 41-24 77-62 93-3 2-6 6-6 10l0 147z m116 0l-164 0c-6 0-11 5-11 11 0 6 5 11 11 11l164 0c6 0 11-5 11-11 0-6-5-11-11-11z m112-80l-389 0c-5 0-10 5-10 11 0 6 5 11 10 11l389 0c6 0 11-5 11-11 0-6-5-11-11-11z m-194-179c0-13-11-24-24-24-14 0-25 11-25 24 0 14 11 25 25 25 13 0 24-11 24-25z m-2 91c0-5-4-8-8-8-5 0-8 3-8 8 0 4 3 8 8 8 4 0 8-4 8-8z m41 227c0-4-4-8-8-8-4 0-8 4-8 8 0 5 4 8 8 8 4 0 8-3 8-8z m24-278c0-7-5-12-12-12-7 0-12 5-12 12 0 7 5 12 12 12 7 0 12-5 12-12z m-69 266c0-7-5-12-12-12-7 0-12 5-12 12 0 7 5 12 12 12 7 0 12-5 12-12z"/>
<glyph unicode="&#34;" d="M265 197c-31 0-62 12-86 36-27 27-40 65-34 103 0 6 6 10 12 9 5-1 10-6 9-12-5-32 6-63 28-85 39-39 103-39 142 0 19 19 29 44 29 71 0 26-10 52-29 70-39 40-103 40-142 0-4-4-11-4-15 0-4 5-4 11 0 16 47 47 125 47 172 0 23-23 36-54 36-86 0-33-13-63-36-86-24-24-55-36-86-36z m78 189c-2 0-5 1-7 3-4 5-4 11 0 16l92 91c4 5 11 5 15 0 4-4 4-11 0-15l-92-92c-2-2-5-3-8-3z m103 12c-6 0-10 4-11 10l-7 74-76 9c-6 0-10 6-9 12 0 5 6 10 11 9l85-10c5 0 9-4 10-9l8-83c0-6-4-11-10-12 0 0-1 0-1 0z m-267-266c-68 0-124 55-124 123 0 68 56 123 124 123 68 0 123-55 123-123 0-3 0-5 0-8-1-6-6-10-12-10-6 0-10 5-10 11 0 2 0 5 0 7 0 56-45 102-101 102-57 0-102-46-102-102 0-56 45-102 102-102 27 0 53 11 72 31 5 4 11 4 15 0 5-4 5-11 1-15-24-24-55-37-88-37z m0-132c-6 0-11 5-11 11l0 131c0 6 5 11 11 11 6 0 10-5 10-11l0-131c0-6-4-11-10-11z m50 41l-100 0c-6 0-11 4-11 10 0 6 5 11 11 11l100 0c5 0 10-5 10-11 0-6-5-10-10-10z"/>
<glyph unicode="&#35;" d="M501 7l-490 0c-6 0-11 4-11 10l0 58c0 6 5 10 11 10l490 0c6 0 11-4 11-10l0-58c0-6-5-10-11-10z m-480 21l470 0 0 36-470 0z m96 36c-6 0-10 5-10 11l0 357c0 6 4 11 10 11 6 0 11-5 11-11l0-357c0-6-5-11-11-11z m160 31c-67 0-121 53-121 119 0 48 29 91 74 109l0 40-13 0c-6 0-11 5-11 11l0 37c0 6 5 11 11 11l120 0c6 0 11-5 11-11l0-37c0-6-5-11-11-11l-12 0 0-40c44-18 74-61 74-109 0-66-55-119-122-119z m-49 290l13 0c5 0 10-5 10-11l0-58c0-5-3-9-7-10-40-14-67-51-67-92 0-54 45-98 100-98 56 0 100 44 100 98 0 41-26 78-67 92-4 1-7 5-7 10l0 58c0 6 5 11 11 11l13 0 0 15-99 0 0-15z m77-140c0 7-7 13-14 13-8 0-14-6-14-13 0-8 6-13 14-13 7 0 14 5 14 13z m-89-18c0 5-3 8-8 8-4 0-7-3-7-8 0-4 3-7 7-7 5 0 8 3 8 7z m90 260c0 4-3 8-8 8-4 0-7-4-7-8 0-4 3-7 7-7 5 0 8 3 8 7z m-47-316c0 7-6 13-13 13-7 0-13-6-13-13 0-7 6-12 13-12 7 0 13 5 13 12z m17 286c0 9-8 17-18 17-10 0-18-8-18-17 0-10 8-18 18-18 10 0 18 8 18 18z m61-287c0 8-6 14-14 14-7 0-14-6-14-14 0-7 7-13 14-13 8 0 14 6 14 13z m51 166l-271 0c-6 0-10 5-10 11 0 6 4 10 10 10l271 0c6 0 11-4 11-10 0-6-5-11-11-11z"/>
<glyph unicode="&#36;" d="M196 86c0 0 0 0 0 0-3 0-5 1-7 3l-103 106c-4 4-4 10 0 15l195 190c4 4 11 4 15 0l103-105c4-5 4-11 0-16l-195-190c-2-2-5-3-8-3z m-87 116l87-90 180 175-88 90z m126-155c-3 0-6 1-8 3l-179 184c-4 4-4 11 0 15 4 4 11 4 15 0l179-184c5-4 4-11 0-15-2-2-5-3-7-3z m-125 0c-2 0-5 1-7 3l-58 60c-2 2-3 4-3 7 0 3 1 6 3 8l64 62c4 4 11 4 15 0l58-60c2-2 3-5 3-7 0-3-1-6-3-8l-64-62c-2-2-5-3-8-3z m-42 70l43-44 48 47-43 44z m84-113c-2 0-5 1-7 3l-142 145c-4 5-4 11 0 16 4 4 11 4 15-1l142-145c4-4 4-11 0-15-2-2-5-3-8-3z m225 287c-1 0-2 0-3 1-6 1-9 7-7 13l31 92-95-27c-6-1-12 2-13 8-2 5 1 11 7 13l115 32c4 1 8 0 11-3 2-3 3-7 2-11l-38-111c-1-4-6-7-10-7z m42 115c-3 0-6 1-8 3-4 4-4 11 0 15l83 81c4 4 11 4 15 0 4-5 4-11 0-15l-83-81c-2-2-5-3-7-3z"/>
<glyph unicode="&#37;" d="M208 0c-13 0-25 5-34 14l-160 160c-9 9-14 21-14 34 0 12 5 24 14 33l257 257c9 9 21 14 34 14 12 0 24-5 33-14l160-160c19-19 19-48 0-67l-257-257c-9-9-21-14-33-14z m97 491c-7 0-14-3-19-8l-257-257c-5-5-8-12-8-19 0-6 3-13 8-18l160-160c10-10 27-10 37 0l257 257c10 10 10 27 0 37l-160 160c-5 5-12 8-18 8z m2-152c-32 0-59 26-59 58 0 32 27 58 59 58 32 0 58-26 58-58 0-32-26-58-58-58z m0 95c-21 0-37-17-37-37 0-21 16-37 37-37 20 0 37 16 37 37 0 20-17 37-37 37z m90-186c-32 0-58 27-58 59 0 32 26 58 58 58 32 0 58-26 58-58 0-32-26-59-58-59z m0 96c-21 0-37-17-37-37 0-21 16-37 37-37 20 0 37 16 37 37 0 20-17 37-37 37z m-186-101c-32 0-58 26-58 58 0 32 26 58 58 58 32 0 58-26 58-58 0-32-26-58-58-58z m0 95c-20 0-37-17-37-37 0-20 17-37 37-37 20 0 37 17 37 37 0 20-17 37-37 37z m90-185c-32 0-58 26-58 58 0 32 26 58 58 58 32 0 58-26 58-58 0-32-26-58-58-58z m0 95c-20 0-37-17-37-37 0-20 17-37 37-37 20 0 37 17 37 37 0 20-17 37-37 37z m-186-101c-32 0-58 26-58 58 0 32 26 59 58 59 32 0 58-27 58-59 0-32-26-58-58-58z m0 95c-20 0-37-16-37-37 0-20 17-37 37-37 21 0 37 17 37 37 0 21-16 37-37 37z m90-185c-32 0-58 26-58 58 0 32 26 59 58 59 32 0 59-27 59-59 0-32-27-58-59-58z m0 95c-20 0-37-16-37-37 0-20 17-37 37-37 21 0 37 17 37 37 0 21-16 37-37 37z"/>
<glyph unicode="&#38;" d="M367 0l-222 0c-6 0-10 5-10 11l0 55c-84 45-135 130-135 224 0 6 0 12 1 18 0 6 5 10 10 10l490 0c5 0 10-4 10-10 1-6 1-12 1-18 0-94-51-179-135-224l0-55c0-6-4-11-10-11z m-211 21l200 0 0 51c0 4 2 8 6 10 79 40 129 120 129 208 0 3 0 5 0 7l-470 0c0-2 0-4 0-7 0-88 50-168 129-208 4-2 6-6 6-10z m142 276c-3 0-6 1-9 4l-147 170c-11 12-24 20-36 20-6 0-14-2-20-9-14-16-10-48 9-70l84-97c4-5 4-12-1-15-4-4-11-4-15 1l-84 97c-26 30-30 74-9 98 9 10 21 16 36 16 18 0 37-10 52-27l148-170c3-5 3-12-2-15-2-2-4-3-6-3z"/>
<glyph unicode="&#39;" d="M312 112c-110 0-200 90-200 200 0 110 90 200 200 200 110 0 200-90 200-200 0-110-90-200-200-200z m0 379c-98 0-178-80-178-179 0-98 80-178 178-178 99 0 179 80 179 178 0 99-80 179-179 179z m-290-480c-3 0-6 1-8 3-4 5-4 11 0 15l157 157c4 4 11 4 15 0 4-4 4-11 0-15l-157-157c-2-2-4-3-7-3z m108-11c-3 0-6 1-8 3l-119 119c-4 4-4 11 0 15 4 4 11 4 15 0l119-119c4-4 4-11 0-15-2-2-5-3-7-3z"/>
<glyph unicode="&#40;" d="M256 44c-111 0-202 91-202 202 0 112 91 202 202 202 111 0 202-90 202-202 0-111-91-202-202-202z m0 383c-100 0-181-81-181-181 0-99 81-180 181-180 100 0 181 81 181 180 0 100-81 181-181 181z m-113-427c-1 0-3 0-4 1-5 2-8 9-5 14l28 63c3 5 9 8 14 5 6-2 8-9 6-14l-29-63c-2-4-6-6-10-6z m226 0c-4 0-8 2-10 6l-29 63c-2 5 0 12 6 14 5 3 11 0 14-5l28-63c3-5 0-12-5-14-1-1-3-1-4-1z m-15 236l-98 0c-6 0-11 4-11 10l0 160c0 6 5 11 11 11 6 0 11-5 11-11l0-149 87 0c6 0 11-5 11-11 0-6-5-10-11-10z m-303 127c-3 0-6 2-9 5-14 19-20 43-16 67 4 24 17 45 36 60 16 11 34 17 54 17 29 0 56-14 73-37 2-3 3-5 2-8 0-3-2-6-4-7l-130-95c-2-1-4-2-6-2z m65 128c-15 0-29-5-41-14-15-11-25-27-28-45-2-15 0-30 7-43l111 81c-13 13-31 21-49 21z m345-128c-2 0-4 1-6 2l-130 95c-2 1-4 4-4 7-1 3 0 5 2 8 17 23 44 37 73 37 20 0 38-6 54-17 19-15 32-36 36-60 4-24-2-48-16-67-3-3-6-5-9-5z m-114 107l111-81c7 13 9 28 7 43-3 18-13 34-28 45-12 9-26 14-41 14-18 0-36-8-49-21z m-91-43c-6 0-11 5-11 11l0 63c0 6 5 11 11 11 6 0 11-5 11-11l0-63c0-6-5-11-11-11z"/>
<glyph unicode="&#41;" d="M446 0l-380 0c-5 0-10 5-10 11l0 490c0 6 5 11 10 11l380 0c5 0 10-5 10-11l0-490c0-6-5-11-10-11z m-369 21l358 0 0 470-358 0z m179 25c-74 0-134 61-134 134 0 74 60 135 134 135 74 0 134-61 134-135 0-73-60-134-134-134z m0 247c-62 0-113-50-113-112 0-63 51-113 113-113 62 0 113 50 113 113 0 62-51 112-113 112z m0 67c-30 0-54 24-54 54 0 30 24 54 54 54 30 0 54-24 54-54 0-30-24-54-54-54z m0 86c-18 0-33-14-33-32 0-18 15-33 33-33 18 0 33 15 33 33 0 18-15 32-33 32z m0-319c-30 0-54 24-54 53 0 30 24 54 54 54 30 0 54-24 54-54 0-29-24-53-54-53z m0 86c-18 0-33-15-33-33 0-17 15-32 33-32 18 0 33 15 33 32 0 18-15 33-33 33z"/>
<glyph unicode="&#42;" d="M197-2c-109 0-197 89-197 198 0 108 88 197 197 197 109 0 197-89 197-197 0-109-88-198-197-198z m0 374c-97 0-176-79-176-176 0-97 79-176 176-176 97 0 176 79 176 176 0 97-79 176-176 176z m132-55c-3 0-5 1-7 3-5 4-5 11 0 15l154 154c4 5 11 5 15 0 4-4 4-10 0-15l-154-154c-2-2-5-3-8-3z m172 19c-5 0-10 4-10 10l-13 131-134 15c-6 1-10 6-9 12 0 6 6 10 12 10l142-17c5-1 9-5 10-10l13-139c1-6-4-11-10-12 0 0 0 0-1 0z"/>
<glyph unicode="&#43;" d="M256 200c-144 0-256 53-256 119 0 67 112 119 256 119 144 0 256-52 256-119 0-66-112-119-256-119z m0 217c-127 0-235-45-235-98 0-53 108-97 235-97 127 0 235 44 235 97 0 53-108 98-235 98z m0-343c-144 0-256 52-256 119l0 126 21 0 0-126c0-53 108-98 235-98 127 0 235 45 235 98l0 126 21 0 0-126c0-67-112-119-256-119z m176 160c-1 0-3 1-4 1l-339 154c-5 3-8 9-5 14 2 6 8 8 14 6l339-154c5-3 8-9 5-14-2-4-6-7-10-7z"/>
<glyph unicode="&#44;" d="M256 0c-3 0-6 1-8 4-19 21-38 42-56 61-107 118-192 212-192 286 0 89 65 161 145 161 43 0 84-21 111-58 27 37 68 58 111 58 80 0 145-72 145-161 0-74-85-168-192-286-18-20-37-40-56-61-2-3-5-4-8-4z m-111 491c-68 0-124-63-124-140 0-66 83-157 187-271 16-17 32-35 48-53 16 18 32 36 48 53 104 114 187 205 187 271 0 77-56 140-124 140-41 0-79-23-102-62-4-6-14-6-18 0-23 39-61 62-102 62z m135-404c0 0 0 0 0 0-5 0-10 4-10 9l-28 214-28-144c-1-5-5-8-10-8-5-1-10 3-11 7l-17 58-165 0c-6 0-11 5-11 10 0 6 5 11 11 11l173 0c5 0 9-3 11-8l6-23 33 165c1 6 5 9 11 9 5 0 9-4 10-9l27-212 26 140c1 5 6 9 11 9 5 1 9-3 10-8l17-69 126 0c6 0 11-4 11-10 0-6-5-11-11-11l-134 0c-5 0-9 3-11 8l-7 29-29-159c-1-5-6-8-11-8z"/>
<glyph unicode="&#45;" d="M448 62l-384 0c-35 0-64 28-64 64l0 260c0 36 29 64 64 64l384 0c35 0 64-28 64-64l0-260c0-36-29-64-64-64z m-384 367c-24 0-43-19-43-43l0-260c0-24 19-43 43-43l384 0c24 0 43 19 43 43l0 260c0 24-19 43-43 43z m68-268c-6 0-11 1-16 3-16 6-21 24-25 37l-3 11c-4 12-7 23-7 37 0 3 0 6 0 9-1 8-1 18 7 28 13 13 32 13 48 12 3 0 6 0 9 0 6 0 11-5 11-11 0-6-5-11-11-11-3 0-7 1-10 1-12 0-25 1-31-5-2-3-2-5-2-13 0-3 0-6 0-10 0-11 3-20 6-31l4-12c3-10 5-20 12-22 7-3 26 0 36 5 5 3 11 1 14-5 3-5 0-11-5-14-7-4-23-9-37-9z m129 49c-1 0-1 0-1 0-6 1-10 5-10 11 0 9-8 39-13 46-5 1-9 4-9 9-1 6 4 11 10 12 2 0 7 0 11-3 1 2 3 4 5 5 10 8 18 7 23 5 4-1 7-3 10-6 1 1 2 2 3 4 6 6 15 9 28 7 29-3 31-30 33-48 1-6 1-13 3-18 1-5-2-11-8-13-5-2-11 1-13 7-2 7-3 15-3 22-2 22-4 28-15 29-5 1-8 0-10-1-3-4-1-18 0-27 1-3 1-6 1-8 1-6-3-11-8-12-6-1-11 3-13 8-7 34-15 36-15 36 0 0-1 0-3-1-4-3 0-21 2-30 2-10 3-18 2-25-1-5-5-9-10-9z m-83 20c-4 0-8 3-10 7-2 6 1 12 7 14 8 3 21 5 38 5 6 0 11-5 11-11 0-6-5-10-11-11-14 0-25-1-31-3-1 0-2-1-4-1z m215 9c-4 0-9 1-15 4-11 5-23 15-27 29-3 12 0 25 8 34 8 9 19 14 31 13 6-1 11-6 10-12 0-6-5-10-11-10-6 1-10-1-14-5-3-4-4-9-3-15 2-6 9-12 15-15 5-3 7-2 12-1 5 1 10 2 17 2 6-1 10-6 9-12 0-6-5-10-11-9-4 0-6-1-9-2-4 0-7-1-12-1z m-188-36c-6 0-11 0-16 0-4 0-8 1-12 1-6 0-11 5-11 10 0 6 5 11 11 11 4 0 9 0 13 0 11-1 22-2 29 1 6 2 12-1 14-6 2-6-1-12-6-14-7-3-15-3-22-3z m-105 9c-4 0-7 2-9 6-3 5-1 11 4 14 19 11 42 15 54 17 6 1 11-4 12-9 1-6-3-12-9-12-18-3-35-8-47-14-1-1-3-2-5-2z m319 85c-2 0-3 0-4 0-5 1-9 5-9 9-1 8 1 17 6 25 1 2 3 4 4 5 2 2 3 3 3 4 0 1-1 2-2 2-2 2-5 2-7 2-1-5-5-8-10-8 0 0 0 0 0 0-6 0-11 5-11 10 0 12 9 20 22 20 0 0 0 0 0 0 14 0 30-10 30-26 0-8-5-14-8-17 3 1 7 1 12 1 5 0 10-5 9-11 0-6-5-11-11-10-2 0-5-1-9-3-4-1-9-3-15-3z"/>
<glyph unicode="&#46;" d="M103 135l-15 0c-27 0-50 25-50 56l0 276c0 6 5 11 11 11l93 0c6 0 10-5 10-11l0-276c0-31-22-56-49-56z m-43 321l0-265c0-19 13-35 28-35l15 0c15 0 28 16 28 35l0 265z m101 0l-131 0c-6 0-11 5-11 11 0 6 5 11 11 11l131 0c6 0 11-5 11-11 0-6-5-11-11-11z m340-422l-490 0c-6 0-11 5-11 11l0 67c0 6 5 11 11 11l490 0c6 0 11-5 11-11l0-67c0-6-5-11-11-11z m-480 22l470 0 0 46-470 0z m121 316l-88 0c-6 0-11 5-11 10 0 6 5 11 11 11l88 0c6 0 10-5 10-11 0-5-4-10-10-10z m122-237l-16 0c-27 0-49 25-49 56l0 276c0 6 5 11 11 11l92 0c6 0 11-5 11-11l0-276c0-31-22-56-49-56z m-44 321l0-265c0-19 13-35 28-35l16 0c15 0 28 16 28 35l0 265z m102 0l-132 0c-6 0-10 5-10 11 0 6 4 11 10 11l132 0c6 0 10-5 10-11 0-6-4-11-10-11z m-20-134l-87 0c-6 0-11 5-11 11 0 5 5 10 11 10l87 0c6 0 11-5 11-10 0-6-5-11-11-11z m122-187l-15 0c-27 0-49 25-49 56l0 276c0 6 4 11 10 11l93 0c6 0 11-5 11-11l0-276c0-31-22-56-50-56z m-43 321l0-265c0-19 13-35 28-35l15 0c15 0 28 16 28 35l0 265z m101 0l-131 0c-6 0-11 5-11 11 0 6 5 11 11 11l131 0c6 0 11-5 11-11 0-6-5-11-11-11z m-19-51l-88 0c-6 0-10 5-10 11 0 6 4 11 10 11l88 0c6 0 11-5 11-11 0-6-5-11-11-11z"/>
<glyph unicode="&#47;" d="M358 0l-204 0c-25 0-45 20-45 44l0 236-28 0c-6 0-11 5-11 11l0 49c0 6 5 11 11 11l350 0c3 0 6-1 8-3 2-2 3-5 3-8l0-49c0-6-5-11-11-11l-28 0 0-236c0-24-20-44-45-44z m-266 301l28 0c6 0 11-4 11-10l0-247c0-12 10-23 23-23l204 0c13 0 23 11 23 23l0 247c0 6 5 10 11 10l28 0 0 28-328 0z m164 175c0-14-11-25-25-25-14 0-25 11-25 25 0 14 11 25 25 25 14 0 25-11 25-25z m93-69c0-17-14-31-31-31-17 0-31 14-31 31 0 17 14 31 31 31 17 0 31-14 31-31z m-113-152l-82 0c-5 0-10 5-10 11 0 6 5 11 10 11l82 0c6 0 11-5 11-11 0-6-5-11-11-11z m0-102l-82 0c-5 0-10 5-10 11 0 5 5 10 10 10l82 0c6 0 11-5 11-10 0-6-5-11-11-11z m0-103l-82 0c-5 0-10 5-10 11 0 6 5 11 10 11l82 0c6 0 11-5 11-11 0-6-5-11-11-11z"/>
<glyph unicode="&#58;" d="M216 0c-7 0-13 1-20 2-42 6-71 31-75 64-1 6 4 11 9 12 6 0 12-4 12-10 4-27 32-41 57-45 32-5 71 4 83 30 12 26 13 53 14 82 2 35 4 71 25 104 8 12 17 23 25 34 15 18 29 36 37 59 12 36 2 89-23 115-29 30-66 44-116 44-28-1-55-7-77-19-11-6-19-15-27-24-6-6-12-13-20-19-4-3-11-3-15 2-4 5-3 11 2 15 6 5 11 11 17 17 9 10 19 20 33 28 25 13 56 21 87 21 56 1 98-15 132-50 29-31 42-94 27-137-9-26-25-46-40-66-8-10-17-20-24-31-18-29-20-61-21-94-2-30-3-60-17-89-14-32-51-45-85-45z m-8 225c-5 0-10 4-11 9-1 6 3 12 9 13 23 4 56 36 69 55 12 20 16 45 9 67-5 19-21 33-39 34-35 3-60-3-73-18-3-4-10-5-15-1-4 4-5 11-1 15 17 20 48 29 91 26 27-2 50-22 58-50 8-28 3-59-12-84-15-23-53-60-83-65-1-1-1-1-2-1z m-82-116c-1 0-2 0-3 0-5 2-9 8-7 14 3 12 10 24 16 36 9 18 18 34 16 52-2 19-9 37-17 55-5 11-10 22-13 34-2 6 1 12 7 13 5 2 11-1 13-7 4-10 8-20 13-31 8-20 16-39 19-62 2-24-9-44-19-64-6-11-12-22-15-32-1-5-5-8-10-8z"/>
<glyph unicode="&#59;" d="M274 0c-1 0-2 0-3 1-6 2-9 8-7 13 4 12 6 20 8 27 2 10 4 17 11 26 4 4 9 7 12 10 11 8 22 12 33 15 12 3 25 3 37 2 12-1 24-2 33 3 2 1 3 1 3 1 0 1-3 6-5 9-4 7-9 16-7 27 2 9 10 14 15 18 1 0 1 0 1 0-1 2-4 4-5 5l-3 2c-3 3-4 9-2 13 4 7 11 11 18 14-5 8-6 18 0 27 7 11 19 13 29 15 4 0 8 1 10 2 0 0 0 0 0 0l-3 4c-5 6-9 11-14 16-2 3-6 5-9 8-11 10-23 22-26 37-2 10 2 19 4 26l2 4c2 7 3 13 3 21-1 13-3 30-5 35-29 70-92 110-172 110-97 0-175-79-175-175 0-26 6-53 18-77 6-12 13-23 21-33l2-2c9-11 17-20 17-39 1-5 1-12 0-18 0-12-5-26-15-40-6-9-11-19-17-29-8-14-15-28-25-40-3-5-10-6-15-3-4 4-5 11-2 15 9 12 16 25 23 38 6 10 12 21 19 31 7 11 11 21 11 29 0 6 0 11 0 16 0 12-4 16-12 26l-2 3c-10 11-18 23-24 36-13 27-21 57-21 87 0 108 89 196 197 196 89 0 159-45 192-123 4-11 6-37 6-42 1-11-1-20-4-30l-2-3c-2-6-4-11-3-15 1-8 11-17 20-25 3-3 7-6 10-10 5-5 9-10 14-16l3-4c5-5 10-11 8-19-1-8-9-11-14-14-5-2-11-3-16-4-7-1-13-2-15-6-3-4 3-10 7-12 3-2 4-6 4-10 0-4-3-7-6-9-3-1-6-2-9-2-2-1-3-1-5-2 4-4 7-9 7-15-1-9-8-14-13-17-2-1-5-4-6-5 0-2 3-8 5-12 4-8 9-16 6-26-2-6-7-10-14-14-14-6-29-5-44-4-10 0-20 1-29-2-10-2-18-5-25-10-4-3-8-6-9-8-4-4-5-7-7-17-2-7-4-16-9-29-1-4-5-7-10-7z m-40 170c-80 0-146 66-146 146 0 81 66 146 146 146 81 0 146-65 146-146 0-80-65-146-146-146z m0 271c-68 0-124-56-124-125 0-68 56-124 124-124 69 0 125 56 125 124 0 69-56 125-125 125z m-15-159l0 6c-2 13 2 27 14 41 11 12 16 21 16 32 0 12-7 20-22 20-8 0-18-3-23-7l-6 14c8 6 21 10 33 10 27 0 40-17 40-35 0-16-9-27-21-40-10-13-14-23-13-35l0-6-18 0z m-5-33c0 9 6 15 14 15 8 0 14-6 14-15 0-8-6-14-14-14-8 0-14 6-14 14z"/>
<glyph unicode="&#60;" d="M255 69c-105 0-191 84-191 187 0 103 86 187 191 187 106 0 191-84 191-187 0-103-85-187-191-187z m0 353c-93 0-169-75-169-166 0-91 76-166 169-166 94 0 170 75 170 166 0 91-76 166-170 166z m229-78c-5 0-8 3-10 7-39 85-125 140-220 140-91 0-176-52-216-133-3-5-9-7-14-5-6 3-8 9-5 14 43 88 136 145 235 145 104 0 197-60 239-153 3-5 0-11-5-14-2 0-3-1-4-1z m-230-344c-101 0-194 58-236 147-3 5-1 12 5 14 5 3 11 1 14-5 39-82 124-135 217-135 91 0 174 50 215 130 2 5 9 7 14 4 5-3 7-9 5-14-45-87-135-141-234-141z m1 69c-62 0-111 82-111 187 0 105 49 187 111 187 63 0 112-82 112-187 0-105-49-187-112-187z m0 353c-49 0-90-76-90-166 0-90 41-166 90-166 49 0 90 76 90 166 0 90-41 166-90 166z m0-353c-6 0-10 5-10 11l0 352c0 6 4 11 10 11 6 0 11-5 11-11l0-352c0-6-5-11-11-11z m181 176l-361 0c-6 0-11 5-11 11 0 6 5 11 11 11l361 0c5 0 10-5 10-11 0-6-5-11-10-11z m-23 83l-315 0c-6 0-11 5-11 11 0 6 5 11 11 11l315 0c6 0 11-5 11-11 0-6-5-11-11-11z m0-166l-315 0c-6 0-11 5-11 11 0 6 5 11 11 11l315 0c6 0 11-5 11-11 0-6-5-11-11-11z m76 177c-1 0-2 0-3 1l-57 18c-6 2-9 8-7 14 2 5 8 8 13 7l46-16 10 43c1 5 7 9 13 8 5-2 9-8 8-13l-13-54c0-3-2-5-5-7-1-1-3-1-5-1z m-478-240c-1 0-2 0-3 0-5 1-9 7-8 13l13 53c0 3 2 6 5 7 2 2 6 2 8 1l57-19c6-2 9-8 7-13-2-6-8-9-13-7l-46 15-10-42c-1-5-5-8-10-8z"/>
<glyph unicode="&#61;" d="M102 48c-52 0-94 42-94 94 0 37 21 71 54 86l0 96 80 0 0-96c33-15 55-49 55-86 0-52-43-94-95-94z m-18 255l0-89-7-3c-29-11-48-38-48-69 0-40 33-73 73-73 41 0 73 33 73 73 0 31-19 58-47 69l-7 3 0 89-37 0z m282-7c-6 0-10 5-10 11l0 33c0 9-7 16-15 16l-214 0c-8 0-14-5-14-12l0-23c0-6-5-11-11-11-6 0-10 5-10 11l0 23c0 18 16 34 35 34l214 0c20 0 36-17 36-38l0-33c0-6-5-11-11-11z m2-191l-4 0c-17 0-30 14-30 31l0 116-14 0 0 66 93 0 0-66-14 0 0-116c0-17-14-31-31-31z m-27 168l14 0 0-137c0-5 4-9 9-9l4 0c5 0 10 4 10 9l0 137 14 0 0 23-51 0 0-23z m107-252c-5 0-10 5-10 11l0 448c0 6 5 11 10 11 6 0 11-5 11-11l0-448c0-6-5-11-11-11z m46 0l-476 0c-6 0-10 5-10 11 0 6 4 11 10 11l476 0c6 0 10-5 10-11 0-6-4-11-10-11z m-4 183l-170 0c-6 0-11 5-11 11 0 6 5 11 11 11l170 0c6 0 11-5 11-11 0-6-5-11-11-11z m-271 152c-6 0-11 5-11 11l0 46c0 5 5 10 11 10 6 0 10-5 10-10l0-46c0-6-4-11-10-11z m27 46l-58 0c-5 0-10 5-10 11 0 5 5 10 10 10l58 0c6 0 11-5 11-10 0-6-5-11-11-11z"/>
<glyph unicode="&#62;" d="M136 94c-3 0-6 2-8 4l-93 116c-2 2-3 7-2 10l54 138c1 4 5 7 9 7l153 15c3 0 7-1 9-4l80-99c2-3 3-7 2-10l-47-146c-1-4-5-7-9-8l-146-23c-1 0-1 0-2 0z m-80 128l85-106 134 21 43 135-73 90-141-14z m271 44c-3 0-6 2-8 4l-75 94c-3 3-3 7-2 10l43 113c2 3 5 6 9 6l119 19c3 0 7-1 9-4l76-94c2-3 3-7 2-10l-44-113c-1-3-4-6-8-6l-119-19c-1 0-1 0-2 0z m-63 106l68-84 107 17 39 101-68 84-107-17z m-164-28c-3 0-6 1-8 4l-78 96c-4 5-3 11 2 15 4 4 11 3 15-2l77-96c4-5 3-11-1-15-2-2-5-2-7-2z m9-344c-1 0-2 0-3 0-6 2-9 8-7 14l28 93c2 5 8 8 14 7 5-2 8-8 7-14l-29-93c-1-4-6-7-10-7z"/>
<glyph unicode="&#63;" d="M376 0l-240 0c-13 0-23 5-27 14-5 8-4 19 3 30l92 146 0 104c-15 1-26 13-26 28 0 15 13 28 29 28l98 0c16 0 29-13 29-28 0-15-11-27-26-28l0-104 92-146c7-11 8-22 3-30-4-9-14-14-27-14z m-169 328c-4 0-8-3-8-6 0-4 4-7 8-7l8 0c6 0 11-5 11-11l0-117c0-3-1-4-2-6l-94-149c-3-4-3-7-3-8 1-1 4-3 9-3l240 0c5 0 8 2 9 3 0 1 0 4-3 8l-94 149c-1 2-2 3-2 6l0 117c0 6 5 11 11 11l8 0c4 0 8 3 8 7 0 3-4 6-8 6z m49-205c-6 0-11 5-11 11l0 229c-23 10-38 30-38 54l0 84c0 6 5 11 11 11 6 0 11-5 11-11l0-84c0-12 6-23 16-30l0 11c0 1-2 23 12 39 5 5 15 13 32 13 35 0 42-36 42-50 0-13-4-25-12-33-8-8-20-12-35-12-6 0-12 0-17 1l0-222c0-6-5-11-11-11z m11 255c5-1 11-2 17-2 9 0 16 2 20 6 4 4 6 10 6 18 0 0 0 28-21 28-7 0-12-2-16-6-8-8-6-23-6-23l0-21z m64-262l-154 0c-6 0-11 5-11 11 0 6 5 10 11 10l154 0c5 0 10-4 10-10 0-6-5-11-10-11z"/>
<glyph unicode="&#64;" d="M255 0c-27 0-48 22-48 49l0 87c-72 1-102 55-105 91l0 3 0 115c0 27 21 49 48 49 27 0 49-22 49-49l0-110c1-1 4-2 8-2l0 230c0 27 21 49 48 49 27 0 49-22 49-49l0-118c4 0 8 1 9 2l0 110c0 27 22 49 49 49 27 0 48-22 48-49l0-117c-3-37-33-92-106-92l0-199c0-27-22-49-49-49z m-105 372c-15 0-27-12-27-27l0-117c2-28 27-71 86-71l19 0 0-109c0-14 12-27 27-27 15 0 27 13 27 27l0 221 21 0c59 0 84 43 86 72l0 116c0 15-12 28-27 28-15 0-27-13-27-28l-1-114c-3-13-13-19-31-19l-21 0 0 139c0 15-12 28-27 28-15 0-27-13-27-28l0-252-19 0c-18 0-28 7-31 20l-1 2 0 112c0 15-12 27-27 27z"/>
<glyph unicode="&#91;" d="M245 0c-6 0-11 5-11 11l0 183c0 6 5 11 11 11 6 0 11-5 11-11l0-183c0-6-5-11-11-11z m0 97c-3 0-6 1-8 4-27 29-102 84-103 85-4 3-5 10-2 15 4 4 10 5 15 2 3-2 77-57 106-88 4-4 4-11-1-15-2-2-4-3-7-3z m0-9c-2 0-4 1-6 2-5 3-6 9-3 14 2 3 48 78 110 94 5 1 11-2 13-8 1-6-2-12-8-13-54-14-96-83-97-84-2-3-5-5-9-5z m163 74c-30 0-58 13-78 35-3 3-6 7-9 11-18-16-42-25-67-25-27 0-52 11-71 29-20-23-49-36-79-36-57 0-104 47-104 106 0 58 47 105 104 105 5 0 10 0 14-1-1 7-2 14-2 21 0 58 47 105 104 105 41 0 78-24 95-60 53 6 101-30 113-81 48-10 84-53 84-104 0-58-47-105-104-105z m-82 82l7-14c4-7 8-13 13-19 16-18 38-28 62-28 45 0 83 38 83 84 0 43-32 79-74 84l-8 1-1 8c-7 46-50 79-98 69l-9-1-3 8c-12 33-43 55-78 55-45 0-83-38-83-84 0-11 2-21 6-31l9-22-22 8c-8 2-17 4-26 4-22 0-43-9-58-25-16-16-25-37-25-59 0-47 38-84 83-84 28 0 53 13 69 36l8 12 9-11c16-19 39-31 64-31 24 0 46 11 62 28z"/>
<glyph unicode="&#93;" d="M256 46c-141 0-256 114-256 256 0 5 5 10 11 10l490 0c6 0 11-5 11-10 0-142-115-256-256-256z m-234 245c5-125 108-224 234-224 126 0 229 99 234 224z m461-93l-454 0c-6 0-11 4-11 10 0 6 5 11 11 11l454 0c6 0 11-5 11-11 0-6-5-10-11-10z m-268 9c-3 0-6 1-8 3-4 4-4 11 1 15l257 239c5 4 11 3 15-1 4-4 4-11 0-15l-258-239c-2-2-4-2-7-2z"/>
<glyph unicode="&#94;" d="M304 162l-96 0c-4 0-7 2-9 6l-48 83c-2 3-2 7 0 10l48 83c2 4 5 6 9 6l96 0c4 0 7-2 9-6l48-83c2-3 2-7 0-10l-48-83c-2-4-5-6-9-6z m-90 22l84 0 42 72-42 72-84 0-42-72z m-54 61l-97 0c-6 0-11 5-11 11 0 6 5 11 11 11l97 0c6 0 11-5 11-11 0-6-5-11-11-11z m-123-26c-21 0-37 17-37 37 0 20 16 37 37 37 20 0 36-17 36-37 0-20-16-37-36-37z m0 52c-9 0-16-7-16-15 0-8 7-15 16-15 8 0 15 7 15 15 0 8-7 15-15 15z m412-26l-97 0c-6 0-11 5-11 11 0 6 5 11 11 11l97 0c6 0 11-5 11-11 0-6-5-11-11-11z m26-26c-20 0-36 17-36 37 0 20 16 37 36 37 21 0 37-17 37-37 0-20-16-37-37-37z m0 52c-8 0-15-7-15-15 0-8 7-15 15-15 9 0 16 7 16 15 0 8-7 15-16 15z m-267 58c-4 0-7 1-9 5l-49 84c-3 5-1 12 4 15 5 3 12 1 15-4l48-84c3-6 2-12-4-15-1-1-3-1-5-1z m-61 81c-21 0-37 16-37 36 0 20 16 37 37 37 20 0 36-17 36-37 0-20-16-36-36-36z m0 51c-9 0-16-6-16-15 0-8 7-15 16-15 8 0 15 7 15 15 0 9-7 15-15 15z m205-383c-3 0-7 2-9 5l-48 84c-3 6-2 12 4 15 5 3 11 1 14-4l49-84c3-6 1-12-4-15-2-1-4-1-6-1z m13-49c-20 0-36 17-36 37 0 20 16 36 36 36 21 0 37-16 37-36 0-20-16-37-37-37z m0 52c-8 0-15-7-15-15 0-9 7-15 15-15 9 0 16 6 16 15 0 8-7 15-16 15z m-61 247c-1 0-3 1-5 2-5 3-7 9-4 14l49 84c3 6 10 7 15 4 5-3 7-9 4-14l-49-84c-2-4-6-6-10-6z m63 81c-21 0-37 16-37 36 0 21 16 37 37 37 20 0 36-16 36-37 0-20-16-36-36-36z m0 52c-9 0-16-7-16-16 0-8 7-15 16-15 8 0 15 7 15 15 0 9-7 16-15 16z m-209-383c-1 0-3 1-5 2-5 3-7 9-4 14l49 84c3 6 10 7 15 4 5-3 7-9 4-14l-49-84c-2-4-6-6-10-6z m-13-48c-20 0-36 16-36 37 0 20 16 36 36 36 21 0 37-16 37-36 0-21-16-37-37-37z m0 52c-8 0-15-7-15-15 0-9 7-16 15-16 9 0 16 7 16 16 0 8-7 15-16 15z"/>
<glyph unicode="&#95;" d="M501 490l-490 0c-6 0-11 5-11 10 0 6 5 11 11 11l490 0c6 0 11-5 11-11 0-5-5-10-11-10z m-99-489l-292 0c-42 0-76 34-76 76l0 423c0 6 4 11 10 11l424 0c6 0 10-5 10-11l0-423c0-42-34-76-76-76z m-347 489l0-413c0-30 25-55 55-55l292 0c30 0 55 25 55 55l0 413z m201-61l-161 0c-6 0-11 5-11 11 0 6 5 10 11 10l161 0c6 0 11-4 11-10 0-6-5-11-11-11z m-80-122l-81 0c-6 0-11 4-11 10 0 6 5 11 11 11l81 0c5 0 10-5 10-11 0-6-5-10-10-10z m80-123l-161 0c-6 0-11 5-11 11 0 6 5 10 11 10l161 0c6 0 11-4 11-10 0-6-5-11-11-11z m-80-122l-81 0c-6 0-11 4-11 10 0 6 5 11 11 11l81 0c5 0 10-5 10-11 0-6-5-10-10-10z"/>
<glyph unicode="&#96;" d="M262 284c-3 0-6 2-8 4-29 34-42 70-39 107 6 67 63 113 65 115 5 3 11 3 15-2 4-5 3-11-2-15 0 0-51-42-56-100-3-31 8-62 33-91 4-5 3-11-1-15-2-2-5-3-7-3z m-37-284c-3 0-6 1-8 4-4 5-3 11 2 15 0 0 51 42 57 100 2 31-9 62-34 91-4 5-3 11 1 15 5 4 12 4 15-1 29-34 42-70 39-107-6-67-63-113-65-115-2-1-4-2-7-2z m276 215c-3 0-6 1-8 4 0 0-42 51-100 57-31 2-62-9-91-34-5-4-11-3-15 1-4 5-4 12 1 15 34 29 70 42 107 39 67-6 113-63 115-65 3-4 3-11-2-15-2-1-4-2-7-2z m-372 0c-4 0-8 0-12 0-67 6-113 63-115 65-3 4-3 11 2 15 5 4 11 3 15-2 0 0 42-51 100-56 31-3 62 8 91 33 5 4 11 3 15-1 4-5 3-12-1-15-30-26-62-39-95-39z m159 54c-1 0-1 0-1 0-6 0-11 5-10 11 3 45 20 79 49 103 51 43 123 36 126 35 6 0 10-5 10-11-1-6-6-10-12-10-1 0-66 7-111-30-24-20-38-50-41-88 0-6-5-10-10-10z m-213-176c-9 0-14 0-15 1-6 0-10 5-10 11 1 6 6 10 12 10 1 0 66-7 111 30 24 20 38 50 41 88 0 6 5 11 11 10 6 0 11-5 10-11-3-45-20-79-49-103-38-32-87-36-111-36z m333-43c-1 0-1 0-1 0-6 1-10 6-10 12 0 1 7 66-30 111-20 24-50 38-88 41-6 0-11 5-10 11 0 6 6 11 11 10 45-3 79-20 103-49 43-51 36-123 35-126 0-6-5-10-10-10z m-175 227c-1 0-1 0-1 0-45 3-79 20-103 49-43 51-36 123-35 126 0 6 5 10 11 10 6-1 10-6 10-12 0-1-7-66 30-111 20-24 50-38 88-41 6 0 11-5 10-11 0-6-5-10-10-10z"/>
<glyph unicode="&#123;" d="M471 19l-430 0c-23 0-41 18-41 41l0 324c0 23 18 41 41 41l430 0c23 0 41-18 41-41l0-324c0-23-18-41-41-41z m-430 385c-11 0-20-9-20-20l0-324c0-11 9-20 20-20l430 0c11 0 20 9 20 20l0 324c0 11-9 20-20 20z m326 10l-22 0 0 38c0 11-9 20-19 20l-140 0c-10 0-19-9-19-20l0-38-22 0 0 38c0 23 19 41 41 41l140 0c22 0 41-18 41-41l0-38z m-111-340c-82 0-148 66-148 148 0 82 66 148 148 148 82 0 148-66 148-148 0-82-66-148-148-148z m0 275c-70 0-127-57-127-127 0-70 57-127 127-127 70 0 127 57 127 127 0 70-57 127-127 127z m92-138l-181 0c-6 0-10 5-10 11 0 6 4 11 10 11l181 0c6 0 11-5 11-11 0-6-5-11-11-11z m-90-90c-6 0-11 5-11 10l0 181c0 6 5 11 11 11 6 0 10-5 10-11l0-181c0-5-4-10-10-10z"/>
<glyph unicode="&#124;" d="M386 0l-260 0c-19 0-34 15-34 34l0 241c0 9 8 16 25 31 26 22 65 55 67 94 1 6 5 10 11 10l122 0c6 0 10-4 11-10 2-39 41-72 67-94 17-15 25-22 25-31l0-241c0-19-15-34-34-34z m-273 273l0-239c0-7 6-13 13-13l260 0c7 0 13 6 13 13l0 239c-3 4-11 11-17 16-26 22-66 57-74 100l-104 0c-8-43-48-78-74-100-6-5-14-12-17-16z m225 116l-168 0c-6 0-10 5-10 11l0 101c0 6 4 11 10 11l168 0c6 0 11-5 11-11l0-101c0-6-5-11-11-11z m-157 21l146 0 0 81-146 0z m39 5c-6 0-11 5-11 11l0 42c0 6 5 11 11 11 6 0 11-5 11-11l0-42c0-6-5-11-11-11z m59 0c-6 0-11 5-11 11l0 42c0 6 5 11 11 11 6 0 11-5 11-11l0-42c0-6-5-11-11-11z m17-348c-5 0-10 5-10 11l0 30c0 5 2 8 6 10 28 14 45 42 45 73 0 45-37 82-82 82-45 0-82-37-82-82 0-30 17-58 44-72 3-2 6-6 6-10l0-31c0-6-5-11-11-11-6 0-11 5-11 11l0 25c-30 19-49 52-49 88 0 57 46 103 103 103 57 0 103-46 103-103 0-37-19-70-51-89l0-24c0-6-5-11-11-11z m-41-9c-6 0-11 5-11 11l0 30c0 6 5 11 11 11 6 0 11-5 11-11l0-30c0-6-5-11-11-11z m0 80c-6 0-11 5-11 11l0 19c0 6 5 10 11 10 6 0 11-4 11-10l0-19c0-6-5-11-11-11z m-23 61c0-10-9-18-19-18-10 0-18 8-18 18 0 10 8 19 18 19 10 0 19-9 19-19z m83 0c0-10-8-18-18-18-10 0-19 8-19 18 0 10 9 19 19 19 10 0 18-9 18-19z"/>
<glyph unicode="&#125;" d="M387 0l-115 0c-6 0-10 5-10 11l0 134c-25 8-44 29-52 55-19-6-39-5-56 5-17-22-41-35-66-35-49 0-88 45-88 100 0 41 21 77 54 92 0 3 0 6 0 9 0 43 30 77 67 77 4 0 8 0 12-1 10 28 35 47 63 47 13 0 27-5 38-13 15 19 37 31 60 31 30 0 57-19 70-48 6 1 12 2 17 2 45 0 82-40 84-90 28-11 47-41 47-75 0-25-9-47-26-62 10-16 15-34 15-54 0-52-38-95-84-95-6 0-13 1-19 3l0-82c0-6-5-11-11-11z m-104 21l94 0 0 87c0 4 2 7 5 9 3 2 7 2 10 1 8-4 17-6 25-6 34 0 62 33 62 73 0 19-5 36-15 50-2 2-3 5-2 8 0 3 2 5 4 7 15 10 25 30 25 51 0 27-17 51-39 57-5 1-8 6-8 11l11 1-11 0c0 41-28 75-63 75-6 0-13-2-19-4-3-1-6-1-8 0-3 1-5 4-6 6-9 27-30 44-54 44-20 0-38-12-49-32-2-3-5-5-8-6-4 0-7 1-9 4-9 10-20 16-32 16-22 0-40-17-45-42-1-3-3-6-6-7-3-2-6-2-9 0-5 2-10 3-15 3-25 0-46-25-46-56 0-4 0-9 1-13 1-6-2-11-7-13-28-9-48-40-48-75 0-43 30-78 67-78 21 0 41 12 54 33 1 3 4 4 7 5 3 1 6 0 8-2 17-12 38-14 55-3 3 2 7 2 10 0 3-1 5-4 6-8 4-27 23-49 46-53 5-1 9-5 9-10l0-133z m-213 203c-2 0-4 1-6 2-5 3-6 10-3 15 3 3 2 15 2 22 0 3 0 6 0 9 0 3 1 6 4 8 2 2 5 3 8 2 4 0 8-2 11-3 2-1 4-2 5-2 13-3 28-3 44-3 11 0 21 8 32 24 18 28 19 60 19 94 0 2 0 4 0 6 0 5 5 9 11 9 6 0 10-5 10-11 0-1 0-2 0-3 1-7 12-15 18-16 9-2 18-4 26-3 3 0 7 2 11 5 3 1 7 3 11 5 5 2 11-1 13-6 2-6 4-11 6-17 3-8 5-17 9-24 2-3 4-5 6-8 4-5 8-10 10-16 1-2 1-6 0-8-1-3-3-5-6-6-4-1-9-6-14-9-4-4-8-7-13-10-22-13-49-21-73-21 0 0 0 0 0 0-6 0-11 5-11 11 0 6 5 10 11 11 20 0 44 6 63 18 3 1 6 4 10 7 2 2 5 5 9 7-1 1-2 2-3 3-2 3-5 7-7 10-5 9-8 19-11 29-1 1-1 2-2 4-4-3-10-5-16-6-11-2-23 1-33 3-4 1-10 3-15 6-1-26-6-52-22-76-14-22-30-33-49-33-17-1-33 0-47 3-1 0-2 0-3 0 0-10-1-20-6-27-2-3-5-5-9-5z m257-218c-2 0-3 1-4 1-6 2-8 8-6 14 4 10 3 25 3 38-1 9-1 19 0 28 2 24 13 50 17 59 12 25 28 43 48 51 16 6 46 12 62-4 4-4 4-11 0-15-4-4-11-4-15 0-6 6-25 4-39-1-18-7-30-26-36-39-8-19-14-39-16-54-1-7 0-15 0-24 0-16 1-32-4-47-2-4-6-7-10-7z m37 263c-9 0-21 2-31 11-4 3-8 7-11 11-6 6-10 11-16 15-4 4-5 10-1 15 4 5 10 5 15 2 6-5 12-11 17-17 3-3 7-7 11-11 6-5 14-5 25-4 5 0 7 4 11 17 1 3 2 7 3 11l2 4c5 11 13 30 8 39-3 6 0 12 5 15 5 2 12 0 14-5 9-18-1-41-7-57l-2-4c-1-3-2-6-3-10-4-13-10-30-29-32-3 0-7 0-11 0z m-91-63c-5 0-10 4-10 9-1 3-2 6-3 10-1 6-3 12-2 21 0 6 3 11 5 15 1 4 3 7 3 9 0 6 5 11 10 11 0 0 0 0 1 0 5-1 10-5 10-11 0-7-3-13-5-18-1-3-3-6-3-8 0-5 1-9 2-14 1-3 2-8 3-13 0-6-4-11-10-11 0 0-1 0-1 0z m-5 154c-3 0-7 2-9 5-3 5-1 12 4 15l3 2c8 5 14 8 17 16 5 14 6 28 6 43 0 6 5 11 11 11 5 0 10-5 10-11 0-17 0-33-7-50-6-15-17-22-26-27l-3-2c-2-1-4-2-6-2z m93-195c-2 0-3 0-5 1-5 3-7 9-5 14l3 6c8 15 12 24 12 40l0 8c1 13 1 26-4 36-3 5-1 11 5 14 5 3 11 1 14-5 7-14 7-31 7-46l0-7c0-21-7-34-14-49l-3-6c-2-4-6-6-10-6z"/>
<glyph unicode="&#126;" d="M256 0c-94 0-171 77-171 171 0 95 57 189 205 338 3 2 6 3 9 3 4-1 7-3 8-6 5-10 120-245 120-335 0-94-77-171-171-171z m39 483c-136-138-189-226-189-312 0-82 67-150 150-150 83 0 150 68 150 150 0 74-87 260-111 312z m-154-361c-6 0-11 5-11 11l0 90c0 6 5 11 11 11 6 0 11-5 11-11l0-90c0-6-5-11-11-11z m53 0c-6 0-11 5-11 11l0 90c0 6 5 11 11 11 6 0 11-5 11-11l0-90c0-6-5-11-11-11z m0 45l-53 0c-6 0-11 5-11 11 0 6 5 11 11 11l53 0c6 0 11-5 11-11 0-6-5-11-11-11z m54-74c-2 0-4 1-6 1-4 0-7 3-9 7-3 10 0 23 7 31 3 2 7 4 10 6 2 2 5 4 6 5 0 1-1 3-1 4-3 0-3 0-7-4-2-1-3-2-5-4-5-3-11-2-15 2-3 5-3 12 2 15 1 1 3 2 4 3 5 5 12 11 25 8 7-1 13-6 16-13 3-7 3-15-1-21-3-7-9-10-13-13-2-1-4-2-5-3-1-1-1-1-1-2 1 0 3 0 5 1 4 0 8 1 12 1 5 0 10-5 10-11 0-6-5-11-10-11-3 0-6 0-10-1-4 0-9-1-14-1z m86 31c-24 0-44 24-44 54 0 30 20 54 44 54 24 0 43-24 43-54 0-30-19-54-43-54z m0 87c-12 0-22-15-22-33 0-18 10-33 22-33 12 0 22 15 22 33 0 18-10 33-22 33z"/>
<glyph unicode="&#92;" d="M394 0l-276 0c-46 0-84 38-84 84l0 202c0 46 38 84 84 84l276 0c46 0 84-38 84-84l0-202c0-46-38-84-84-84z m-276 349c-35 0-63-28-63-63l0-202c0-34 28-63 63-63l276 0c35 0 63 29 63 63l0 202c0 35-28 63-63 63z m138-303c-77 0-140 62-140 139 0 77 63 140 140 140 77 0 140-63 140-140 0-77-63-139-140-139z m0 257c-65 0-118-53-118-118 0-65 53-118 118-118 65 0 118 53 118 118 0 65-53 118-118 118z m79-133l-85 0c-6 0-10 5-10 10 0 6 4 11 10 11l85 0c6 0 11-5 11-11 0-5-5-10-11-10z m-88 240c-135 0-203 13-203 38 0 5 5 10 11 10 4 0 8-3 10-7 3-3 30-20 182-20 154 0 181 17 185 20 1 4 5 7 9 7 6 0 11-5 11-10 0-25-69-38-205-38z m9-61c-6 0-11 5-11 11l0 61c0 5 5 10 11 10 6 0 11-5 11-10l0-61c0-6-5-11-11-11z m149 70c-5 0-9 3-10 8-1 3-5 7-10 10-3 2-5 5-8 7-1 2-2 3-3 3-1 0-1 0-1 0-2 1-4 1-6 2-9 1-12 4-16 9-1 1-2 2-3 3-7 7-7 7-14 6-1 0-1 0-2 0-3-2-9-3-16 0-6 2-9 7-11 10 0 1-1 2-2 3-1 0-3 0-5-1-3 0-7-1-12 0-3 0-6 3-8 6-1 3-3 5-5 5-9 2-23-4-29-9-10-9-12-10-25-9l-5 0c-8 1-18 2-24 0-2-1-6-2-8-4-1 0-2-2-3-4-2-3-5-6-9-9-6-3-13-3-18-3-2 1-4 1-5 1-12-1-17-8-25-21l-3-5c-4-5-10-6-15-3-5 3-6 10-3 15l3 5c9 13 18 28 41 30 3 0 5 0 8 0 2 0 5-1 6 0 1 0 2 1 2 2 2 3 5 7 9 10 3 2 9 5 15 7 10 2 21 1 30 1l5-1c3 0 5 0 6 0 0 0 2 2 3 3 10 9 31 19 49 15 7-2 12-5 16-11 0 0 1 0 1 0 3 1 8 2 12 1 10-2 14-9 17-13 0 0 0-1 1-2 0 1 0 1 1 1 1 0 3 1 4 1 16 3 23-1 33-12 2-2 3-3 4-4 1-1 1-2 1-2 0 0 1 0 3-1 2 0 4 0 5 0 8-2 10-3 16-10 2-2 4-4 6-5 7-5 15-11 17-21 2-6-1-12-7-13-1-1-2-1-3-1z"/>
<glyph unicode="&#57344;" d="M154 389l0 0c-20 0-29 13-34 24-1 2-2 4-3 6-43 9-63 23-63 40 0 42 127 53 202 53 75 0 202-11 202-53 0-42-127-53-202-53-19 0-37 1-55 2-3-2-5-3-7-4-11-7-24-15-40-15z m102 102c-113 0-178-21-181-32 1-2 12-12 51-20l5-1 2-4c3-4 5-9 6-12 5-10 9-12 15-12l0-10 0 10c10 1 19 6 29 12 3 2 7 4 10 6l3 1 3 0c18-1 38-2 57-2 113 0 178 21 181 32-3 11-68 32-181 32z m0-491c-91 0-189 18-189 56 0 38 98 56 189 56 91 0 189-18 189-56 0-38-98-56-189-56z m0 91c-110 0-167-25-167-35 0-10 57-35 167-35 110 0 167 25 167 35 0 10-57 35-167 35z m-178-47c-6 0-11 5-11 11l0 383c0 6 5 11 11 11 6 0 11-5 11-11l0-383c0-6-5-11-11-11z m356 0c-6 0-11 5-11 11l0 383c0 6 5 11 11 11 6 0 11-5 11-11l0-383c0-6-5-11-11-11z"/>
<glyph unicode="&#57345;" d="M501 0c-1 0-2 0-3 1-1 0-69 26-135 35-10 2-22 3-34 4-67 6-157 15-194 103-41 96-133 352-134 355-2 5 0 10 4 12 5 3 10 2 14-2 30-34 115-76 197-116 95-47 185-92 207-131 38-69 87-240 89-247 1-4 0-8-3-11-2-2-5-3-8-3z m-467 467c28-75 89-242 120-316 32-76 112-84 177-90 12-1 24-2 35-4 47-6 94-21 119-29-14 48-52 169-81 223-19 33-110 78-198 122-66 33-130 64-172 94z m459-464c-3 0-6 1-8 4-101 137-359 340-362 343-4 3-5 10-2 14 4 5 11 6 15 2 11-8 264-207 366-346 3-5 2-12-2-15-2-1-5-2-7-2z"/>
<glyph unicode="&#57346;" d="M428 189l-344 0 0 134 344 0z m-322 22l300 0 0 90-300 0z m139 94l22 0 0-98-22 0z m-155-54c-57 28-90 69-90 113 0 83 112 148 256 148 144 0 256-65 256-148 0-44-33-85-90-113l-10 20c50 24 79 58 79 93 0 70-106 127-235 127-129 0-235-57-235-127 0-35 29-69 79-93z m333 8l-12 18c10 7 23 20 23 35 0 36-72 74-178 74-106 0-178-38-178-74 0-15 13-28 23-35l-12-18c-21 16-32 34-32 53 0 54 87 95 199 95 112 0 199-41 199-95 0-19-11-37-32-53z m-167-259c-144 0-256 65-256 148 0 44 33 85 90 113l10-20c-50-24-79-58-79-93 0-70 106-127 235-127 129 0 235 57 235 127 0 35-29 69-79 93l10 20c57-28 90-69 90-113 0-83-112-148-256-148z m0 105c-112 0-199 41-199 95 0 19 11 37 32 53l12-18c-10-7-23-20-23-35 0-36 72-74 178-74 106 0 178 38 178 74 0 15-13 28-23 35l12 18c21-16 32-34 32-53 0-54-87-95-199-95z m-100 126c-1 0-2 1-3 2l-21 28 0-26c0-2-2-4-4-4-3 0-4 2-4 4l0 39c0 1 1 3 2 3 2 1 4 0 5-1l21-29 0 27c0 2 2 4 4 4 2 0 4-2 4-4l0-39c0-2-1-3-3-4 0 0-1 0-1 0z m222-1l-23 0c-3 0-4 1-4 4 0 2 1 4 4 4l19 0 0 15-17 0c-3 0-4 1-4 4l0 21c0 3 1 4 4 4l21 0c2 0 4-1 4-4 0-2-2-4-4-4l-17 0 0-13 17 0c2 0 4-2 4-4l0-23c0-3-2-4-4-4z"/>
<glyph unicode="&#57347;" d="M358 0l-204 0c-35 0-63 28-63 64l0 265c0 35 28 63 63 63l25 0 0 109c0 6 4 11 10 11l134 0c6 0 10-5 10-11l0-109 25 0c35 0 63-28 63-63l0-265c0-36-28-64-63-64z m-204 371c-23 0-42-19-42-42l0-265c0-24 19-43 42-43l204 0c23 0 42 19 42 43l0 265c0 23-19 42-42 42l-35 0c-6 0-11 5-11 11l0 109-112 0 0-109c0-6-5-11-11-11z m215 120l-226 0c-5 0-10 4-10 10 0 6 5 11 10 11l226 0c5 0 10-5 10-11 0-6-5-10-10-10z m-17-182l-73 0c-6 0-10 5-10 11 0 5 4 10 10 10l73 0c6 0 10-5 10-10 0-6-4-11-10-11z m0-64l-73 0c-6 0-10 5-10 11 0 6 4 11 10 11l73 0c6 0 10-5 10-11 0-6-4-11-10-11z m0-63l-73 0c-6 0-10 5-10 10 0 6 4 11 10 11l73 0c6 0 10-5 10-11 0-5-4-10-10-10z m0-64l-73 0c-6 0-10 5-10 11 0 6 4 11 10 11l73 0c6 0 10-5 10-11 0-6-4-11-10-11z m0-63l-73 0c-6 0-10 5-10 10 0 6 4 11 10 11l73 0c6 0 10-5 10-11 0-5-4-10-10-10z"/>
<glyph unicode="&#57348;" d="M420 0l-328 0c-16 0-28 6-34 17-6 10-4 24 4 37l127 200 0 146c-20 0-36 16-36 35 0 19 16 34 36 34l134 0c20 0 36-15 36-34 0-19-16-35-36-35l0 0 0-146 127-200c8-13 10-27 4-37-6-11-18-17-34-17z m-231 448c-8 0-15-6-15-13 0-7 7-13 15-13l11 0c6 0 11-5 11-11l0-160c0-2-1-4-2-6l-129-202c-4-7-5-13-3-16 2-4 7-6 15-6l328 0c8 0 13 2 15 6 2 3 1 9-3 16l-129 202c-1 2-2 4-2 6l0 160c0 6 5 11 11 11l11 0c8 0 15 6 15 13 0 7-7 13-15 13z m67-298c-6 0-11 5-11 11l0 340c0 6 5 11 11 11 6 0 11-5 11-11l0-340c0-6-5-11-11-11z m0-113c-30 0-54 30-54 67 0 37 24 67 54 67 30 0 54-30 54-67 0-37-24-67-54-67z m0 113c-18 0-33-21-33-46 0-25 15-46 33-46 18 0 33 21 33 46 0 25-15 46-33 46z"/>
<glyph unicode="&#57349;" d="M119 300l-108 0c-6 0-11 5-11 11l0 190c0 6 5 11 11 11l108 0c6 0 11-5 11-11 0-6-5-10-11-10l-98 0 0-169 98 0c6 0 11-5 11-11 0-6-5-11-11-11z m-25 96l-76 0c-6 0-10 4-10 10 0 6 4 11 10 11l76 0c6 0 11-5 11-11 0-6-5-10-11-10z m279-96c-6 0-11 5-11 11l0 190c0 6 5 11 11 11l108 0c6 0 11-5 11-11 0-6-5-10-11-10l-98 0 0-180c0-6-4-11-10-11z m83 96l-76 0c-6 0-10 4-10 10 0 6 4 11 10 11l76 0c6 0 11-5 11-11 0-6-5-10-11-10z m45-140l-244 0c-6 0-11 5-11 10 0 6 5 11 11 11l244 0c6 0 11-5 11-11 0-5-5-10-11-10z m-238 165l-75 0c-6 0-11 4-11 10 0 6 5 11 11 11l75 0c6 0 11-5 11-11 0-6-5-10-11-10z m0-41l-75 0c-6 0-11 5-11 11 0 6 5 11 11 11l75 0c6 0 11-5 11-11 0-6-5-11-11-11z m85-285c-11 0-21 3-30 10-11 8-18 20-20 34-3 18 3 38 15 54 14 18 34 30 55 30 11 0 22-4 31-10 10-8 18-20 20-35 2-18-3-37-15-53-14-19-35-30-56-30z m20 106c-14 0-28-8-38-21-9-12-13-25-11-38 1-6 4-14 12-20 5-4 11-6 17-6 14 0 29 8 39 22 9 11 12 25 11 37-1 6-4 15-12 21-5 3-11 5-18 5z m41-201c-1 0-2 0-3 0-5 1-8 6-8 11l0 164c0 6 5 10 11 10 6 0 10-4 10-10l0-125c17 27 43 61 71 76 5 3 12 1 14-4 3-5 1-12-4-15-41-22-81-100-82-101-2-4-5-6-9-6z"/>
<glyph unicode="&#57350;" d="M275 0c-88 0-160 72-160 160 0 64 39 122 98 147l0 43-122-30c-4-1-7 0-10 2-2 2-4 5-4 8l0 38c0 5 4 10 9 11l127 30 0 37c-21 1-37 15-37 33 0 18 17 33 39 33l120 0c22 0 39-15 39-33 0-18-16-32-37-33l0-139c59-25 98-83 98-147 0-88-72-160-160-160z m-52 374c3 0 5-1 7-3 2-2 4-5 4-8l0-64c0-4-3-8-7-10-54-20-90-72-90-129 0-77 62-139 138-139 76 0 138 62 138 139 0 57-36 109-90 129-4 2-7 6-7 10l0 158c0 5 5 10 11 10l8 0c10 0 18 6 18 12 0 5-8 12-18 12l-120 0c-11 0-18-7-18-12 0-6 7-12 18-12l8 0c6 0 11-5 11-10l0-56c0-5-3-9-8-10l-127-31 0-16 122 29c1 1 1 1 2 1z"/>
<glyph unicode="&#57351;" d="M428 0l-344 0c-21 0-39 17-39 38l0 413c0 21 18 38 39 38l133 0c5 0 10-5 10-11 0-6-5-10-10-10l-133 0c-10 0-17-8-17-17l0-413c0-9 7-17 17-17l344 0c10 0 17 8 17 17l0 413c0 9-7 17-17 17l-133 0c-6 0-10 4-10 10 0 6 4 11 10 11l133 0c21 0 39-17 39-38l0-413c0-21-18-38-39-38z m-56 371l-232 0c-6 0-11 5-11 11l0 63c0 6 5 10 11 10l232 0c6 0 11-4 11-10l0-63c0-6-5-11-11-11z m-222 21l212 0 0 42-212 0z m149 42c-6 0-11 5-11 11 0 25-15 46-32 46-17 0-32-21-32-46 0-6-5-11-11-11-6 0-10 5-10 11 0 37 24 67 53 67 29 0 53-30 53-67 0-6-4-11-10-11z"/>
<glyph unicode="&#57352;" d="M407 0l-295 0c-18 0-33 15-33 33l0 24c0 18 15 33 33 33l63 0c-12 9-22 20-31 32l-62 0c-6 0-10 5-10 10l0 33c0 6 4 11 10 11l167 0c6 0 11-5 11-11l0-31c2-1 4-1 6-1 41 0 75 34 75 75 0 13-4 26-10 38-23-4-45 4-60 20l-12-19 8-5c3-1 4-4 5-7 1-2 0-5-1-8l-25-39c-3-5-9-7-14-4l-104 64c-2 1-4 3-5 6 0 3 0 6 2 8l24 40c2 2 4 4 7 5 3 0 5 0 8-1l8-6 93 152c7 11 21 17 34 15l25 40c2 2 4 4 7 5 3 0 5 0 8-2l32-19c5-3 6-10 3-15l-25-40c9-11 10-26 3-38l-8-13c29-9 49-36 49-68 0-8-1-16-4-24 17-25 26-54 26-85 0-47-22-90-58-118l50 0c9 0 18-4 24-10 6-6 9-14 9-23l0-24c0-18-14-33-33-33z m-295 68c-6 0-11-5-11-11l0-24c0-6 5-12 11-12l295 0c7 0 12 6 12 12l0 24c0 3-1 6-3 8-3 2-5 3-9 3l-90 0c-5 0-10 4-11 9-1 5 2 10 7 12 49 20 81 66 81 119 0 28-9 55-26 77-2 3-2 7-1 11 3 7 5 14 5 21 0 26-20 48-46 50-4 0-7 3-9 6-1 3-1 7 1 10l16 26c3 6 1 13-4 16-5 3-6 10-3 15l23 38-13 9-24-39c-3-5-9-7-14-4-6 3-13 2-16-4l-98-160c-2-2-4-4-7-5-3 0-6 0-8 2l-8 5-14-22 86-52 13 21-8 5c-2 2-4 4-5 7-1 3 0 6 1 8l25 41c2 3 6 5 9 5 4 0 7-2 9-5 12-18 33-28 55-22 4 1 9-1 11-4 12-17 18-36 18-56 0-53-43-96-96-96-16 0-31 4-45 11-4 2-6 7-5 12 1 5 5 8 10 8l13 0 0 12-146 0 0-12 56 0c4 0 7-2 9-5 15-22 36-39 61-49 4-2 7-7 6-12-1-5-5-9-10-9l-103 0z"/>
<glyph unicode="&#57353;" d="M256 124c-36 0-66 27-70 62-2 19 3 37 15 52 11 15 28 24 47 26 57 7 93 33 111 80 14 37 11 74 11 76-1 18 4 36 16 51 12 15 29 24 48 25 39 4 73-24 77-63 9-96-30-283-247-309-3 0-5 0-8 0z m185 351c-2 0-4 0-5 0-13-1-25-7-33-18-9-10-13-23-11-36 0-4 2-44-13-84-21-55-63-86-129-94-13-1-25-8-33-18-8-10-11-23-10-36 3-27 28-46 55-43 200 23 236 197 228 285-3 25-24 44-49 44z m-371-460c-10 0-17 4-23 7-5 2-8 4-12 4-6 1-10 6-9 12 0 6 6 10 11 9 8-1 14-3 19-6 5-3 9-5 15-4 10 0 18 4 28 9 13 7 21 26 27 42l1 3c7 17 15 38 38 50 12 6 24 8 35 10 6 0 11 1 17 3 6 1 11-3 13-8 1-6-2-12-8-13-6-2-13-3-19-4-10-1-19-2-28-7-15-8-21-20-28-39l-1-3c-8-19-17-42-38-53-11-6-22-11-36-12-1 0-1 0-2 0z m-59 103c-1 0-2 0-3 0-6 2-9 8-8 13 4 15 28 38 40 44 18 8 46 6 65 3 6-1 12-2 18-3 26-5 55-10 74 0 5 3 11 1 14-4 3-5 1-11-4-14-25-14-58-8-87-3-7 1-12 2-18 3-25 3-43 3-53-2-8-4-26-23-28-30-1-4-6-7-10-7z m162 69c-28 0-59 15-76 30-2 2-4 5-7 7-20 20-44 42-71 34-6-1-12 2-13 8-2 5 1 11 7 13 39 11 70-18 92-40 2-2 5-4 7-6 17-16 57-32 79-21 5 3 11 0 14-5 2-5 0-11-5-14-8-4-17-6-27-6z"/>
<glyph unicode="&#57354;" d="M411 409c-1 0-2 0-3 0l-92 21c-6 1-9 7-8 13 1 6 7 9 13 8l92-21c6-1 10-7 8-13-1-5-5-8-10-8z m-178-160c-1 0-2 0-3 0-5 1-9 7-8 13l35 150c1 6 7 10 12 8 6-1 10-7 8-12l-34-151c-1-5-5-8-10-8z m129-74c-1 0-2 0-2 0l-97 22c-6 1-9 7-8 13 1 5 7 9 13 8l96-22c6-2 10-7 8-13-1-5-5-8-10-8z m57 31c-1 0-2 0-3 0-6 2-9 7-8 13l35 151c1 6 7 10 12 8 6-1 10-7 8-12l-34-152c-1-5-6-8-10-8z m39 151c-30 0-54 24-54 54 0 30 24 54 54 54 30 0 54-24 54-54 0-30-24-54-54-54z m0 87c-18 0-33-15-33-33 0-18 15-33 33-33 18 0 33 15 33 33 0 18-15 33-33 33z m-181-46c-30 0-55 25-55 54 0 30 25 55 55 55 29 0 54-25 54-55 0-29-25-54-54-54z m0 87c-19 0-33-14-33-33 0-18 14-32 33-32 18 0 32 14 32 32 0 19-14 33-32 33z m127-363c-4 0-8 0-12 1-14 3-26 12-34 24-7 12-10 27-6 41 5 25 27 42 52 42 4 0 8-1 12-1 14-4 26-12 34-24 8-13 10-27 7-41-6-25-27-42-53-42z m0 87c-15 0-28-11-32-26-2-8 0-17 5-25 4-7 11-12 20-14 17-4 35 7 39 25 2 8 1 17-4 24-5 8-12 13-20 15-3 0-5 1-8 1z m-181-46c-4 0-8 0-12 1-11 3-21 9-29 18-11 13-16 30-12 47 6 25 28 42 53 42 4 0 8 0 12-1 14-3 26-12 34-24 8-12 10-27 7-41-6-25-28-42-53-42z m0 87c-15 0-29-11-32-26-2-10 0-20 7-28 5-6 11-9 18-11 17-4 35 8 39 25 2 8 0 17-4 24-5 8-12 13-21 15-2 1-5 1-7 1z m-169-245c-4 0-8 1-12 2-11 2-21 8-29 17-11 13-15 31-12 48 6 24 28 42 53 42 4 0 8-1 12-2 29-6 48-35 41-64-6-25-27-43-53-43z m0 87c-15 0-28-10-32-25-2-10 0-21 7-29 5-5 11-9 18-10 18-4 35 7 39 24 4 18-7 35-25 40-2 0-4 0-7 0z m30-11c-3 0-6 1-8 3-4 4-4 11 1 15l106 98c4 4 11 3 15-1 4-4 4-11-1-15l-106-98c-2-1-5-2-7-2z"/>
<glyph unicode="&#57355;" d="M282 0c-1 0-3 0-5 1l-235 116c-4 2-7 5-6 10 0 4 3 8 7 9l172 65c3 1 6 1 8 0l247-109c4-2 6-6 6-10 0-5-2-8-6-10l-184-71c-1-1-3-1-4-1z m-209 125l210-103 155 61-220 97z m109-2c-5 0-10 5-10 11l0 367c0 6 5 11 10 11 6 0 11-5 11-11l0-367c0-6-5-11-11-11z m160 184c-61 0-106 23-106 54 0 31 45 55 106 55 60 0 106-24 106-55 0-31-46-54-106-54z m0 87c-53 0-85-19-85-33 0-13 32-33 85-33 52 0 85 20 85 33 0 14-33 33-85 33z m-76-17c-1 0-2 0-4 1l-107 40c-6 2-8 8-6 13 2 6 8 9 13 7l108-40c5-2 8-8 6-14-2-4-6-7-10-7z"/>
<glyph unicode="&#57356;" d="M449 184c-4 0-8 3-10 6-2 6 0 12 5 15 28 13 47 43 47 77 0 47-34 85-76 85-15 0-29-5-42-15-3-2-8-3-12 0-3 2-5 6-4 11 0 4 1 9 1 14 0 41-30 74-66 74-36 0-66-33-66-74l0-1c0-5-4-10-9-11-4 0-8-1-12-3-5-2-11 1-13 7-2 5 1 11 6 13 2 1 5 2 7 2 3 50 41 88 87 88 47 0 86-41 87-92 12 5 24 8 36 8 54 0 97-47 97-106 0-42-23-80-59-97-1 0-3-1-4-1z m-340-83l-12 0c-54 0-97 48-97 106 0 49 30 90 73 102 3 49 41 88 87 88 40 0 75-30 84-73 2-5-2-11-8-12-5-2-11 2-12 8-8 33-34 56-64 56-37 0-66-34-66-74 0-6-4-11-9-12-36-6-64-42-64-83 0-47 34-84 76-84l12 0c6 0 10-5 10-11 0-6-4-11-10-11z m267-61l-187 0c-53 0-96 47-96 105 0 49 30 91 72 102 4 49 41 88 87 88 47 0 86-41 87-92 12 5 24 8 37 8 53 0 96-48 96-106 0-58-43-105-96-105z m-124 274c-36 0-66-33-66-74 1-5-3-11-8-12-37-6-64-42-64-83 0-46 34-84 75-84l187 0c41 0 75 38 75 84 0 47-34 84-75 84-15 0-30-5-42-14-4-3-9-3-12 0-4 2-6 6-5 11 1 4 1 9 1 14 0 41-29 74-66 74z"/>
</font>
</defs>
</svg>
